вход на сайт

Имя пользователя :
Пароль :

Восстановление пароля Регистрация
Туман 2 (Иван Шурховецкий, фантастика, драма, военный, 2012) [DVDRip-AVC, Оригинал (русский)]
Рейтинг:
(голосов: 1)



[img]{THEME}/images/logopost.png[/img]



«Туман 2»

¤Родина - одна на все времена.¤

¤Информация о фильме¤
Год выпуска: 2012
Страна: Россия
Производство: ВВП Альянс
Жанр: фантастика, драма, военный

Режиссёр: Иван Шурховецкий
В ролях: Григорий Калинин, Дмитрий Сергин, Артем Крестников, Иван Лапин, Алексей Марков, Ирина Горбачева, Нодари Джанелидзе, Алексей Митин, Юрий Уткин, Сергей Гарусов

Перевод: Оригинал (русский)
Субтитры: нет

Описание
¤ ¤ ¤
- ...Во время празднования Дня Победы герои понимают, что тематическая военная вечеринка сменилась реальностью фашистского тыла. Пятеро парней, известных зрителям по первой части фильма, оказываются в немецкой пивной. В суматохе боя им удается бежать, однако в неразберихе «пришельцы из 21 века» случайно ранят красноармейца по фамилии Кантария. Друзья понимают, что если тот не выживет, то изменится ход истории — кто же будет водружать флаг на Рейхстаг? Теперь их задача — добраться до своих, не дать погибнуть будущему герою войны и, конечно, вернуться обратно в свое время... -
¤ ¤ ¤



¤Тех.Данные¤
Качество: DVDRip-AVC
Продолжительность: ~ 02:27:42 часа

Формат: Matroska-MKV-
Видео кодек: AVC [email protected]
Аудио кодек: Audio Coding 3
Видео: [email protected] (16:9), 25 fps, AVC ~2435 kbps avg, 0.235 bit/pixel
Аудио: 48 kHz, AC3 Dolby Digital, 2/0 (L,R) ch, ~224 kbps

Информация MediaInfo ▼TextОбщее
Уникальный идентификатор : 202809663688223137753800013669305830009 (0x9893B86E2791F2F3AD0723198E324A79)
Полное имя : E:DownloadsТуман 2.2012.DVDRip-AVC.mkv
Формат : Matroska
Версия формата : Version 1
Размер файла : 2,75 Гбайт
Продолжительность : 2 ч. 27 м.
Общий поток : 2662 Кбит/сек
Дата кодирования : UTC 2013-05-08 17:25:22
Программа кодирования : mkvmerge v2.1.0 (Another Place To Fall) built on Aug 19 2007 13:40:07
Библиотека кодирования : libebml v0.7.7 + libmatroska v0.8.1

Видео
Идентификатор : 1
Формат : AVC
Формат/Информация : Advanced Video Codec
Профиль формата : [email protected]
Параметр CABAC формата : Да
Параметр ReFrames формата : 8 кадров
Идентификатор кодека : V_MPEG4/ISO/AVC
Продолжительность : 2 ч. 27 м.
Битрейт : 2435 Кбит/сек
Ширина : 720 пикселей
Высота : 576 пикселей
Соотношение сторон : 16:9
Соотношение сторон в оригинале : 5:4
Частота кадров : 25,000 кадров/сек
Стандарт вещания : PAL
Цветовое пространство : YUV
Субдискретизация насыщенности : 4:2:0
Битовая глубина : 8 бит
Тип развёртки : Прогрессивная
Бит/(Пиксели*Кадры) : 0.235
Размер потока : 2,46 Гбайт (90%)
Библиотека кодирования : x264 core 115 r1937 aa21558
Настройки программы : cabac=1 / ref=8 / deblock=1:-3:-3 / analyse=0x3:0x113 / me=umh / subme=8 / psy=1 / psy_rd=1.00:0.10 / mixed_ref=0 / me_range=32 / chroma_me=1 / trellis=2 / 8x8dct=1 / cqm=0 / deadzone=21,11 / fast_pskip=1 / chroma_qp_offset=-3 / threads=6 / sliced_threads=0 / nr=0 / decimate=1 / interlaced=0 / bluray_compat=0 / constrained_intra=0 / bframes=8 / b_pyramid=2 / b_adapt=2 / b_bias=0 / direct=3 / weightb=1 / open_gop=0 / weightp=0 / keyint=250 / keyint_min=25 / scenecut=40 / intra_refresh=0 / rc_lookahead=30 / rc=2pass / mbtree=1 / bitrate=2435 / ratetol=1.0 / qcomp=0.60 / qpmin=15 / qpmax=47 / qpstep=3 / cplxblur=20.0 / qblur=0.5 / ip_ratio=1.40 / aq=1:1.10
Язык : English
Default : Да
Forced : Нет

Аудио
Идентификатор : 2
Формат : AC-3
Формат/Информация : Audio Coding 3
Расширение режима : CM (complete main)
Идентификатор кодека : A_AC3
Продолжительность : 2 ч. 27 м.
Вид битрейта : Постоянный
Битрейт : 224 Кбит/сек
Каналы : 2 канала
Расположение каналов : Front: L R
Частота : 48,0 КГц
Битовая глубина : 16 бит
Метод сжатия : С потерями
Размер потока : 237 Мбайт (8%)
Default : Да
Forced : Нет

_____________________________________________________________________________________


afb18e1296c48bf09fc493398934e0f590a3f041Туман 2 (Иван Шурховецкий, фантастика, драма, военный, 2012) [DVDRip-AVC, Оригинал (русский)] Туман 2 (Иван Шурховецкий, фантастика, драма, военный, 2012) [DVDRip-AVC, Оригинал (русский)] " />

Аплоадер: Админ, дата: 9-05-2013, 14:20, торрент скачан: 359 раз

Понравилась раздача? Посмотрите эти:
  • Околофутбола (Антон Борматов, драма, криминал, 2013) [DVDRip-AVC, Не требуе ...
  • Интимные места (Наталья Меркулова, Алексей Чупов, драма, мелодрама, 2013) [ ...
  • Они сражались за Родину (полная версия) (Сергей Бондарчук, драма, военный, ...
  • Башня / The Tower (Чи-хун Ким, драма, 2012) [BDRip-AVC, Любительский (двухг ...
  • Гараж (Эльдар Рязанов, драма, комедия, 1979) [DVDRip-AVC, Оригинал (русский ...
  • Голливудский мусор / Garbage (Филипп Волкен, драма, комедия, 2013) [HDTVRip ...
  • Кавказский пленник (Сергей Бодров, драма, военный, 1996) [DVDRip-AVC, не тр ...
  • Новые технологии войны / The New Technology of War [Часть 1] (документальны ...
  • Новые технологии войны / The New Technology of War [Часть 2] (документальны ...
  • Туман 2 (Иван Шурховецкий, фантастика, драма, военный, 2012) [DVDRip, Ориги ...
  • Суррогат / The Sessions (Бен Луин, Драма, 2012) [BDRip-AVC, Профессиональны ...
  • Мертвое поле (Александр Аравин, Драма, военный, 2006) [DVDRip-AVC, Оригинал ...
  • Чемпионат Англии 2012-2013 / 25-й тур / Обзор / Суббота / BBC Sport [2013 г ...
  • Образец 47 / Marvel One-Shot: Item 47 (Луис Д’Эспозито, короткометражка, фа ...
  • День учителя (Сергей Мокрицкий, драма, 2012) [DVDRip-AVC, Не требуется]
  • Котенок с улицы Лизюкова (Вячеслав Котеночкин, Мультфильм, 1988) [DVDRip-AV ...
  • Заражение / Contagion (Стивен Содерберг, Фантастика, 2011) [BDRip 1080p, Пр ...
  • Туман-2 // Эпизоды с 1 по 4 (из 4) (Военный, приключение, 2012) [SATRip-AVC ...
  • МУР // Эпизоды с 1 по 20 (из 20) (криминал, военный, 2012) [DVDRip-AVC, Не ...
  • VA (Korn, Flyleaf, Deftones, Dir En Grey, 10 Years, Stone Sour, Deadsy) / F ...
  • Информация
    Посетители, находящиеся в группе Гости, не могут оставлять комментарии к данной публикации.