вход на сайт

Имя пользователя :
Пароль :

Восстановление пароля Регистрация
Начало времен / Year One (Харольд Рэмис, Фантастика, комедия, приключения, 2009) [BDRip-AVC, Профессиональный (полное дублирование), Оригинал (английский), Sub]
Рейтинг:
(голосов: 1)



[img]{THEME}/images/logopost.png[/img]



Начало времен / Year One

Год выпуска: 2009
Страна: США
Производство: Apatow Productions, Columbia Pictures, Ocean Pictures
Жанр: Фантастика, комедия, приключения

Режиссёр: Харольд Рэмис
В ролях: Джек Блэк, Майкл Сера, Оливер Платт, Дэвид Кросс, Кристофер Минц-Плассе, Винни Джонс, Хэнк Азария, Джуно Темпл, Оливия Уайлд, Джун Рафаэль

Перевод: Профессиональный (полное дублирование), Оригинал (английский)
Субтитры: Английские, русские

Описание: Два приятеля из доисторических времен — нагловатый охотник по имени Зед и неженка-невротик, занимающийся собирательством, по имени Лох — постоянно ввязываются в нелепые истории, и, в конце концов, изгоняются из родного племени.

Казалось бы, жизнь дала трещину… но только не для наших придурковатых неандертальцев. Мир оказывается больше и интереснее, чем родная чаща леса, и изгнание становится отличным поводом попутешествовать и понять, наконец, что это за штука такая — жизнь…



Качество: BDRip-AVC
Продолжительность: 01:39:31

Формат: MKV
Видео кодек: AVC
Аудио кодек: AC3
Видео: 980x532 (1,85:1), 23,976 fps, Advanced Video Codec ~2240 Кbps avg, 0.179 bit/pixel
Аудио #1: 48 kHz, AC3 Dolby Digital, 3/2 (L,C,R,l,r) + LFE ch, ~448.00 kbps avg | RUS
Аудио #2: 48 kHz, AC3 Dolby Digital, 3/2 (L,C,R,l,r) + LFE ch, ~448.00 kbps avg | ENG

Дата премьеры (мир): 18 июня 2009
Дата премьеры (РФ): 1 октября 2009, «BVSPR Sony»

MediaInfo ▼Общее
Уникальный идентификатор : 223275577483599551207474082334656935259 (0xA7F94FE2ADE6DEC58FC1121B52BFB55B)
Полное имя : Nachalo.Vremjon.2009.D.Unrated.BDRip.x264.potroks.mkv
Формат : Matroska
Версия формата : Version 4 / Version 2
Размер файла : 2,18 Гбайт
Продолжительность : 1 ч. 39 м.
Общий поток : 3137 Кбит/сек
Название фильма : -=POTROKS=-
Дата кодирования : UTC 2013-05-07 06:11:34
Программа кодирования : mkvmerge v5.9.0 (On The Loose) built on Dec 15 2012 16:39:58
Библиотека кодирования : libebml v1.3.0 + libmatroska v1.4.0

Видео
Идентификатор : 1
Формат : AVC
Формат/Информация : Advanced Video Codec
Профиль формата : [email protected]
Параметр CABAC формата : Да
Параметр ReFrames формата : 7 кадров
Идентификатор кодека : V_MPEG4/ISO/AVC
Продолжительность : 1 ч. 39 м.
Битрейт : 2240 Кбит/сек
Ширина : 980 пикселей
Высота : 532 пикселя
Соотношение сторон : 1,85:1
Режим частоты кадров : Постоянный
Частота кадров : 23,976 кадра/сек
Цветовое пространство : YUV
Субдискретизация насыщенности : 4:2:0
Битовая глубина : 8 бит
Тип развёртки : Прогрессивная
Бит/(Пиксели*Кадры) : 0.179
Размер потока : 1,51 Гбайт (69%)
Заголовок : Year One
Библиотека кодирования : x264 core 128 r2216M 198a7ea
Настройки программы : cabac=1 / ref=8 / deblock=1:-2:-2 / analyse=0x3:0x133 / me=umh / subme=9 / psy=1 / psy_rd=1.04:0.00 / mixed_ref=1 / me_range=32 / chroma_me=1 / trellis=2 / 8x8dct=1 / cqm=0 / deadzone=21,11 / fast_pskip=0 / chroma_qp_offset=-2 / threads=6 / lookahead_threads=1 / sliced_threads=0 / nr=0 / decimate=1 / interlaced=0 / bluray_compat=0 / constrained_intra=0 / bframes=9 / b_pyramid=1 / b_adapt=2 / b_bias=0 / direct=3 / weightb=1 / open_gop=0 / weightp=2 / keyint=240 / keyint_min=23 / scenecut=40 / intra_refresh=0 / rc_lookahead=150 / rc=2pass / mbtree=1 / bitrate=2240 / ratetol=1.0 / qcomp=0.70 / qpmin=0 / qpmax=69 / qpstep=4 / cplxblur=20.0 / qblur=0.5 / vbv_maxrate=20000 / vbv_bufsize=20000 / nal_hrd=none / ip_ratio=1.35 / aq=1:0.80
Язык : English
Default : Да
Forced : Нет

Аудио #1
Идентификатор : 2
Формат : AC-3
Формат/Информация : Audio Coding 3
Расширение режима : CM (complete main)
Параметр Endianness формата : Big
Идентификатор кодека : A_AC3
Продолжительность : 1 ч. 39 м.
Вид битрейта : Постоянный
Битрейт : 448 Кбит/сек
Каналы : 6 каналов
Расположение каналов : Front: L C R, Side: L R, LFE
Частота : 48,0 КГц
Битовая глубина : 16 бит
Метод сжатия : С потерями
Задержка видео : 27 мс.
Размер потока : 319 Мбайт (14%)
Заголовок :
2ae7f86c8b3b924580fd3de99be36ea9457f8685Начало времен / Year One (Харольд Рэмис, Фантастика, комедия, приключения, 2009) [BDRip-AVC, Профессиональный (полное дублирование), Оригинал (английский), Sub] Начало времен / Year One (Харольд Рэмис, Фантастика, комедия, приключения, 2009) [BDRip-AVC, Профессиональный (полное дублирование), Оригинал (английский), Sub] " />

Аплоадер: Админ, дата: 7-05-2013, 18:19, торрент скачан: 359 раз

Понравилась раздача? Посмотрите эти:
  • Одноклассники 2 / Grown Ups 2 (Деннис Дуган, Комедия, 2013) [BDRip-AVC, Про ...
  • Погнали! / Getaway (Кортни Соломон, боевик, криминал, 2013) [BDRip-AVC, Про ...
  • Начало времен [Театральная версия] / Year One (Харольд Рэмис, Фантастика, к ...
  • Невероятный Бёрт Уандерстоун / The Incredible Burt Wonderstone (Дон Скардин ...
  • Никто не выжил / No One Lives (Рюхэй Китамура, Триллер, ужасы, 2012) [BDRip ...
  • Ослепленный желаниями / Bedazzled (Харольд Рэмис, фэнтези, комедия, мелодра ...
  • Летучий отряд Скотланд-Ярда / The Sweeney (Ник Лав, Боевик, драма, криминал ...
  • Невероятный Бёрт Уандерстоун / The Incredible Burt Wonderstone (Дон Скардин ...
  • Залив / The Bay (Барри Левинсон, Ужасы, фантастика, триллер, 2012) [BDRip-A ...
  • Порочные игры / Stoker (Пак Чхан Ук, Триллер, драма, детектив, 2013) [BDRip ...
  • Фантомы / Shutter (Масаюки Очиай, ужасы, триллер, детектив, 2008) [BDRip-AV ...
  • Поймай толстуху, если сможешь [Театральная версия] / Identity Thief [Theatr ...
  • Даю год / I Give It a Year (Дэн Мазер, мелодрама, комедия, 2012) [BDRip-AVC ...
  • Возвращение героя / The Last Stand (Ким Чжи Ун, боевик, триллер, криминал, ...
  • Линкольн / Lincoln (Стивен Спилберг, драма, военный, биография, история, 20 ...
  • Начало времен (Расширенная версия) / Year One (Unrated) (Харольд Рэмис, Ком ...
  • Ищу друга на конец света / Seeking a Friend for the End of the World (Лорен ...
  • Начало времен / Year One [Unrated] (Харольд Рэмис / Комедия, приключения / ...
  • Начало времен / Year One (Харольд Рэмис,Комедия, Приключения , 2009) [DVDRi ...
  • Начало времен / Year One (Харольд Рэмис,Комедия, Приключения , 2009) [BDRip ...
  • Информация
    Посетители, находящиеся в группе Гости, не могут оставлять комментарии к данной публикации.