вход на сайт

Имя пользователя :
Пароль :

Восстановление пароля Регистрация
Железный человек 3 / Iron Man 3 (Шейн Блэк, Фантастика, боевик, приключения, 2013) [BDRip-AVC, Дубляж, Оригинал (английский), Sub]
Рейтинг:
(голосов: 1)



[img]{THEME}/images/logopost.png[/img]



Железный человек 3 / Iron Man 3
«Герой будет сражен»

Год выпуска: 2013
Страна: США, Китай
Производство: Paramount Pictures, Marvel Studios Inc.
Жанр: Фантастика, боевик, приключения

Режиссёр: Шейн Блэк
В ролях: Роберт Дауни мл., Гвинет Пэлтроу, Дон Чидл, Гай Пирс, Бен Кингсли, Джеймс Бэдж Дэйл, Ребекка Холл, Тай Симпкинс, Уильям Сэдлер, Джон Фавро

Перевод: Дубляж, Оригинал (английский)
Субтитры: Русские (полные, форсированные, комментарии), Украинские (полные, форсированные), Английские (полные (3 вида), SDH, SDH цветные)

Описание: Когда мир Старка рушится на его глазах по вине неизвестных противников, Тони жаждет найти виновных и свести с ними счеты. Оказавшись в безвыходной ситуации, Старк может рассчитывать только на себя и свою изобретательность, чтобы защитить тех, кто ему дорог. Это становится настоящим испытанием для героя, которому придется не только сражаться с коварным врагом, но и разобраться в себе, чтобы найти ответ на вопрос, который давно его тревожит: что важнее - человек или костюм?



Качество: BDRip-AVC | Сэмпл|
Продолжительность: 02:10:32 час.

Формат: MKV
Видео кодек: x264
Аудио кодек: AC3
Видео: 1104x460 (2.40:1), 23.976 fps, x264 ~2 290 kbps avg, 0.188 bit/pixel
Аудио#1: 48 kHz, AC3 Dolby Digital, 3/2 (L,C,R,l,r) + LFE ch, ~448 kbps avg- (Дубляж)
Аудио#2: 48 kHz, AC3 Dolby Digital, 3/2 (L,C,R,l,r) + LFE ch, ~448 kbps avg- (Оригинал)

Дата премьеры (мир): 18 апреля 2013
Дата премьеры (РФ): 2 мая 2013, «WDSSPR»

MediaInfo ▼
Общее
Уникальный идентификатор : 174589951989182527525533602751365288707 (0x8358CD39194FB2199394A5F61FC09303)
Полное имя : H:жч32.91heleznyj_chelovek_3_2013_BDRip_AVC_Dub_Eng_sub__stalkerok_.mkv
Формат : Matroska
Размер файла : 2,91 Гбайт
Продолжительность : 2 ч. 10 м.
Общий поток : 3189 Кбит/сек
Название фильма : Iron Man 3 2013 (Youtracker) (Rip by Stalker oK)
Дата кодирования : UTC 2013-08-30 16:57:24
Программа кодирования : mkvmerge v6.2.0 (Promised Land) built on Apr 28 2013 12:22:01
Библиотека кодирования : libebml v1.3.0 + libmatroska v1.4.0

Видео
Идентификатор : 1
Формат : AVC
Формат/Информация : Advanced Video Codec
Профиль формата : [email protected]
Параметр CABAC формата : Да
Параметр ReFrames формата : 12 кадры
Идентификатор кодека : V_MPEG4/ISO/AVC
Продолжительность : 2 ч. 10 м.
Битрейт : 2290 Кбит/сек
Ширина : 1104 пикс.
Высота : 460 пикс.
Соотношение сторон : 2,40:1
Частота кадров : 23,976 кадр/сек
Цветовое пространство : YUV
Подвыборка цветности : 4:2:0
Битовая глубина : 8 бит
Тип развёртки : Прогрессивная
Бит/(Пиксели*Кадры) : 0.188
Размер потока : 2,03 Гбайт (70%)
Библиотека кодирования : x264 core 130 r2273 b3065e6
Настройки программы : cabac=1 / ref=12 / deblock=1:-3:-2 / analyse=0x3:0x133 / me=umh / subme=11 / psy=1 / psy_rd=1.05:0.10 / mixed_ref=1 / me_range=32 / chroma_me=1 / trellis=2 / 8x8dct=1 / cqm=0 / deadzone=21,11 / fast_pskip=0 / chroma_qp_offset=-3 / threads=6 / lookahead_threads=1 / sliced_threads=0 / nr=0 / decimate=0 / interlaced=0 / bluray_compat=0 / constrained_intra=0 / bframes=11 / b_pyramid=2 / b_adapt=2 / b_bias=0 / direct=3 / weightb=1 / open_gop=0 / weightp=2 / keyint=240 / keyint_min=23 / scenecut=40 / intra_refresh=0 / rc_lookahead=60 / rc=2pass / mbtree=1 / bitrate=2290 / ratetol=2.0 / qcomp=0.65 / qpmin=0 / qpmax=69 / qpstep=4 / cplxblur=20.0 / qblur=0.5 / vbv_maxrate=50000 / vbv_bufsize=62500 / nal_hrd=none / ip_ratio=1.40 / aq=2:0.90

Аудио #1
Идентификатор : 2
Формат : AC-3
Формат/Информация : Audio Coding 3
Расширение режима : CM (complete main)
Идентификатор кодека : A_AC3
Продолжительность : 2 ч. 10 м.
Вид битрейта : Постоянный
Битрейт : 448 Кбит/сек
Канал(ы) : 6 канала(ов)
Расположение каналов : Front: L C R, Side: L R, LFE
Частота : 48,0 КГц
Битовая глубина : 16 бит
Метод сжатия : С потерями
Размер потока : 418 Мбайт (14%)
Заголовок : Dub
Язык : Russian

Аудио #2
54009f109378edba7b10ef31005b2d7f509f744eЖелезный человек 3 / Iron Man 3 (Шейн Блэк, Фантастика, боевик, приключения, 2013) [BDRip-AVC, Дубляж, Оригинал (английский), Sub] Железный человек 3 / Iron Man 3 (Шейн Блэк, Фантастика, боевик, приключения, 2013) [BDRip-AVC, Дубляж, Оригинал (английский), Sub] " />

Аплоадер: Админ, дата: 31-08-2013, 03:40, торрент скачан: 359 раз

Понравилась раздача? Посмотрите эти:
  • Железный человек 3 / Iron Man 3 (Шейн Блэк, Фантастика, боевик, приключения ...
  • [3D] Железный человек 3 / Iron Man 3 (Шейн Блэк, Фантастика, боевик, приклю ...
  • [3D] Железный человек 3 / Iron Man 3 (Шейн Блэк, Фантастика, боевик, приклю ...
  • [3D] Железный человек 3 / Iron Man 3 (Шейн Блэк, Фантастика, боевик, приклю ...
  • Железный человек 3 / Iron Man 3 (Шейн Блэк, Фантастика, боевик, приключения ...
  • Железный человек 3 / Iron Man 3 (Шейн Блэк, фантастика, боевик, приключения ...
  • [3D] Железный человек 3 / Iron Man 3 (Шейн Блэк, Фантастика, боевик, приклю ...
  • Железный человек 3 / Iron Man 3 (Шейн Блэк, Фантастика, боевик, приключения ...
  • Железный человек 3 / Iron Man 3 (Шейн Блэк, Фантастика, боевик, приключения ...
  • Железный человек 3 / Iron Man 3 (Шейн Блэк, Фантастика, боевик, приключения ...
  • Железный человек 3 / Iron Man 3 (Шейн Блэк, фантастика, боевик, триллер, 20 ...
  • Железный человек 3 / Iron Man 3 (Шейн Блэк, Фантастика, боевик, приключения ...
  • Железный человек 3 / Iron Man 3 (Шейн Блэк, Фантастика, боевик, приключения ...
  • Железный человек 3 / Iron Man 3 (Шейн Блэк, Фантастика, боевик, приключения ...
  • Железный человек 3 / Iron Man 3 (Шейн Блэк, Фантастика, боевик, приключения ...
  • Железный человек 3 / Iron Man 3 (Шейн Блэк, Фантастика, боевик, приключения ...
  • Железный человек 3 / Iron Man 3 (Шейн Блэк, фантастика, боевик, триллер, 20 ...
  • Железный человек 3 / Iron Man 3 (Шейн Блэк, Фантастика, боевик, приключения ...
  • Железный человек 3 / Iron Man 3 (Шейн Блэк, фантастика, боевик, триллер, 20 ...
  • Железный человек 3 / Iron Man 3 (Шейн Блэк, фантастика, боевик, триллер, 20 ...
  • [Доп. материалы] Железный человек 3 / Iron Man 3 (Шейн Блэк, Фантастика, бо ...
  • [3D] Железный человек 3 3D трейлер / Iron Man 3 3D trailer (Шейн Блэк, Фант ...
  • Железный человек 2 / Iron Man 2 (Джон Фавро, Фантастика, боевик, приключени ...
  • [Трейлер] Железный человек 3 / Iron Man 3 (Шейн Блэк, Фантастика, боевик, 2 ...
  • [Трейлер] Железный человек 3 / Iron Man 3 (Шейн Блэк, фантастика, боевик, п ...
  • Информация
    Посетители, находящиеся в группе Гости, не могут оставлять комментарии к данной публикации.