вход на сайт

Имя пользователя :
Пароль :

Восстановление пароля Регистрация
Начало времен [Театральная версия] / Year One (Харольд Рэмис, Фантастика, комедия, приключения, 2009) [BDRip-AVC, Профессиональный (полное дублирование)]
Рейтинг:
(голосов: 1)



[img]{THEME}/images/logopost.png[/img]



Начало времен [Театральная версия] / Year One
«Человек - это звучит гордо!»

Год выпуска: 2009
Страна: США
Производство: Apatow Productions, Columbia Pictures, Ocean Pictures
Жанр: Фантастика, комедия, приключения

Режиссёр: Харольд Рэмис
В ролях: Джек Блэк, Майкл Сера, Оливер Платт, Дэвид Кросс, Кристофер Минц-Плассе, Винни Джонс, Хэнк Азария, Джуно Темпл, Оливия Уайлд, Джун Рафаэль

Перевод: Профессиональный (полное дублирование)
Субтитры: Отсутствуют

Описание: Два приятеля из доисторических времен — нагловатый охотник по имени Зед и неженка-невротик, занимающийся собирательством, по имени Лох — постоянно ввязываются в нелепые истории, и, в конце концов, изгоняются из родного племени.

Казалось бы, жизнь дала трещину… но только не для наших придурковатых неандертальцев. Мир оказывается больше и интереснее, чем родная чаща леса, и изгнание становится отличным поводом попутешествовать и понять, наконец, что это за штука такая — жизнь… Релиз от -
Автор рипа: mitrian

Качество: BDRip-AVC
Продолжительность: 01:36:52 час.

Формат: MKV
Видео кодек: x264
Аудио кодек: AC3
Видео: 1280х688 (1.860), 23,976 fps, AVC ~2 833 kbps avg, 0.134 bit/pixel
Аудио#1: 48 kHz, AC3, 3/2 (L,C,R,l,r) + LFE ch, ~384 kbps| Профессиональный (полное дублирование)

Премьера (мир) - 18 июня 2009
Премьера (РФ) - 1 октября 2009, «BVSPR Sony»

MediaInfo ▼ Format : Matroska
Format version : Version 2
File size : 2.17 GiB
Duration : 1h 36mn
Overall bit rate : 3 211 Kbps
Movie name : Rip by mitrian (NOLIMITS-TEAM.RU)
Encoded date : UTC 2012-04-10 14:05:59
Writing application : mkvmerge v5.4.0 (Piper) built on Mar 10 2012 13:34:39
Writing library : libebml v1.2.3 + libmatroska v1.3.0

Video
ID : 1
Format : AVC
Format/Info : Advanced Video Codec
Format profile : [email protected]
Format settings, CABAC : Yes
Format settings, ReFrames : 9 frames
Codec ID : V_MPEG4/ISO/AVC
Duration : 1h 36mn
Bit rate : 2 833 Kbps
Width : 1 280 pixels
Height : 688 pixels
Display aspect ratio : 1.860
Frame rate : 23.976 fps
Color space : YUV
Chroma subsampling : 4:2:0
Bit depth : 8 bits
Scan type : Progressive
Bits/(Pixel*Frame) : 0.134
Stream size : 1.87 GiB (86%)
Title : Начало времен.[Театральная версия].(2009).BDRip720p.NOLIMITS-TEAM
Writing library : x264 core 122 r2183 c522ad1
Encoding settings : cabac=1 / ref=9 / deblock=1:-3:-2 / analyse=0x3:0x133 / me=umh / subme=10 / psy=1 / psy_rd=1.00:0.15 / mixed_ref=1 / me_range=32 / chroma_me=1 / trellis=2 / 8x8dct=1 / cqm=0 / deadzone=21,11 / fast_pskip=0 / chroma_qp_offset=-3 / threads=6 / sliced_threads=0 / slices=4 / nr=0 / decimate=0 / interlaced=0 / bluray_compat=0 / constrained_intra=0 / bframes=5 / b_pyramid=2 / b_adapt=2 / b_bias=0 / direct=3 / weightb=1 / open_gop=0 / weightp=2 / keyint=240 / keyint_min=24 / scenecut=40 / intra_refresh=0 / rc_lookahead=60 / rc=2pass / mbtree=1 / bitrate=2833 / ratetol=2.0 / qcomp=0.60 / qpmin=0 / qpmax=51 / qpstep=4 / cplxblur=20.0 / qblur=0.5 / ip_ratio=1.40 / aq=2:1.00
Language : English
Default : Yes
Forced : No

Audio
ID : 2
Format : AC-3
Format/Info : Audio Coding 3
Mode extension : CM (complete main)
Codec ID : A_AC3
Duration : 1h 36mn
Bit rate mode : Constant
Bit rate : 384 Kbps
Channel(s) : 6 channels
Channel positions : Front: L C R, Side: L R, LFE
Sampling rate : 48.0 KHz
Bit depth : 16 bits
Compression mode : Lossy
Stream size : 266 MiB (12%)
Title : Русский
Default : Yes
Forced : No

Menu
00:00:00.000 : en:00:00:00.000
00:04:59.923 : en:00:04:59.923
00:13:11.791 : en:00:13:11.791
00:26:58.615 : en:00:26:58.615
00:36:45.577 : en:00:36:45.577
00:49:39.976 : en:00:49:39.976
01:06:26.356 : en:01:06:26.356
01:12:26.356 : en:01:12:26.356
01:18:26.356 : en:01:18:26.356
01:24:26.356 : en:01:24:26.356
01:29:26.356 : en:01:29:26.356




9d4d5144621d525d918f034d8ff0f1a60bb36d90Начало времен [Театральная версия] / Year One (Харольд Рэмис, Фантастика, комедия, приключения, 2009) [BDRip-AVC, Профессиональный (полное дублирование)] Начало времен [Театральная версия] / Year One (Харольд Рэмис, Фантастика, комедия, приключения, 2009) [BDRip-AVC, Профессиональный (полное дублирование)] " />

Аплоадер: Админ, дата: 14-10-2013, 13:05, торрент скачан: 359 раз

Понравилась раздача? Посмотрите эти:
  • Коллекционер [Дилогия] / The Collection [Dilogy] (Маркус Данстэн, Ужасы, бо ...
  • Четвертый вид / The Fourth Kind (Олатунде Осунсанми, ужасы, фантастика, 200 ...
  • Поймай толстуху, если сможешь [Театральная версия] / Identity Thief [Theatr ...
  • Как выйти замуж за 3 дня / Leap Year (Ананд Такер, Мелодрама, комедия, 2010 ...
  • Ослепленный желаниями / Bedazzled (Харольд Рэмис, фэнтези, комедия, 2000) [ ...
  • Начало времен / Year One (Харольд Рэмис, Фантастика, комедия, приключения, ...
  • UFC - Best Of 2012 Year In Review[MMA,2013, BDRip 540p]
  • Начало времен (Расширенная версия) / Year One (Unrated) (Харольд Рэмис, Ком ...
  • Город воров / The Town [Театральная версия / Theatrical Cut] (Бен Аффлек / ...
  • Паранормальное явление 2 / Paranormal Activity 2 [Theatrical Сut / Театраль ...
  • Хранитель времени / Hugo (Мартин Скорсезе, Драма, 2011) [BDRip-AVC, Професс ...
  • Такие разные близнецы / Jack and Jill (Деннис Дуган, комедия, 2011) [BDRip- ...
  • Неуловимый Люк / Lucky Luke (Джеймс Хат, Вестерн, 2009) [HDRip-AVC, Професс ...
  • Город воров [Театральная версия] / The Town [Theatrical cut] (Бен Аффлек, т ...
  • Аватар / Avatar (Джеймс Кэмерон / James Cameron, Фантастика, боевик, трилле ...
  • Мой парень из зоопарка / Zookeeper (Фрэнк Корачи, мелодрама, комедия, семей ...
  • Белоснежка и охотник [Театральная версия] / Snow White and the Huntsman [Th ...
  • Начало времен / Year One [Unrated] (Харольд Рэмис / Комедия, приключения / ...
  • Начало времен / Year One (Харольд Рэмис,Комедия, Приключения , 2009) [DVDRi ...
  • Начало времен / Year One (Харольд Рэмис,Комедия, Приключения , 2009) [BDRip ...
  • Информация
    Посетители, находящиеся в группе Гости, не могут оставлять комментарии к данной публикации.