вход на сайт

Имя пользователя :
Пароль :

Восстановление пароля Регистрация
Короткометражка Marvel: Агент Картер / Marvel One-Shot: Agent Carter (Луис Д’Эспозито, фантастика, боевик, приключения, 2013) [BDRip, Профессиональный (многоголосый закадровый)]
Рейтинг:
(голосов: 1)



[img]{THEME}/images/logopost.png[/img]



Короткометражка Marvel: Агент Картер/ Marvel One-Shot: Agent Carter
«In an All-New Captain America Adventure»

Год выпуска: 2013
Страна: США
Производство: Marvel Studios Inc.
Жанр: Фантастика, боевик, приключения, короткометражка

Режиссёр: Луис Д’Эспозито
В ролях: Хейли Этвелл, Брэдли Уитфорд, Доминик Купер, Тим Тробек, Джон Баринхолц, Энтони Молинари, Джесс Кинг, Марк Аарон Вагнер, Дэвид Хатчинсон, Джейкоб МакКафферти, Тим Ситарц, Линдси Горт, Сара Шрайбер, Нил МакДонаф

Перевод: Профессиональный (многоголосый закадровый)
Субтитры: Нет
Описание: Пегги Картер работает на организации OSS, которая является предшественницей Щ. И. Т. а и ставит перед собой задачу остановить плохих парней, которые собрали своё общество под названием Зодиак. Пегги придется нелегко, ей придется доказывать, что в OSS есть место для женщины, которая ничем не уступает рядовому агенту-мужчине.



Премьера (мир): 19 июля 2013
Качество: BDRip
Продолжительность: 00:15:29

Формат: AVI
Видео кодек: XviD
Аудио кодек: AC3
Видео: 720x304 (2.35:1), 23.976 fps, XVID ~1740 kbps avg, 0.332 bit/pixel
Аудио: 48 kHz, 16 bits, AC3 Dolby Digital, 3/2 (L,C,R,l,r) + LFE ch, ~384 kbps
MediaInfo: ▼General
Complete name : Marvel.One.Shot.Agent.Karter.2013.BRip.avi
Format : AVI
Format/Info : Audio Video Interleave
File size : 236 MiB
Duration : 15mn 29s
Overall bit rate : 2 133 Kbps
Writing application : VirtualDubMod 1.5.10.3 | www.virtualdub-fr.org || (build 2550/release)
Writing library : VirtualDubMod build 2550/release

Video
ID : 0
Format : MPEG-4 Visual
Format profile : Advanced [email protected]
Format settings, BVOP : 1
Format settings, QPel : No
Format settings, GMC : No warppoints
Format settings, Matrix : Default (MPEG)
Codec ID : XVID
Codec ID/Hint : XviD
Duration : 15mn 29s
Bit rate : 1 740 Kbps
Width : 720 pixels
Height : 304 pixels
Display aspect ratio : 2.35:1
Frame rate : 23.976 fps
Color space : YUV
Chroma subsampling : 4:2:0
Bit depth : 8 bits
Scan type : Progressive
Compression mode : Lossy
Bits/(Pixel*Frame) : 0.332
Stream size : 193 MiB (82%)
Writing library : XviD 1.2.1 (UTC 2008-12-04)

Audio
ID : 1
Format : AC-3
Format/Info : Audio Coding 3
Mode extension : CM (complete main)
Format settings, Endianness : Big
Codec ID : 2000
Duration : 15mn 29s
Bit rate mode : Constant
Bit rate : 384 Kbps
Channel(s) : 6 channels
Channel positions : Front: L C R, Side: L R, LFE
Sampling rate : 48.0 KHz
Bit depth : 16 bits
Compression mode : Lossy
Stream size : 42.5 MiB (18%)
Alignment : Split accross interleaves
Interleave, duration : 42 ms (1.00 video frame)
Interleave, preload duration : 500 ms



fd4bf414d2e663302f69c36527c133be9cd5d176Короткометражка Marvel: Агент Картер / Marvel One-Shot: Agent Carter (Луис Д’Эспозито, фантастика, боевик, приключения, 2013) [BDRip, Профессиональный (многоголосый закадровый)] Короткометражка Marvel: Агент Картер / Marvel One-Shot: Agent Carter (Луис Д’Эспозито, фантастика, боевик, приключения, 2013) [BDRip, Профессиональный (многоголосый закадровый)] " />

Аплоадер: Админ, дата: 21-09-2013, 13:07, торрент скачан: 359 раз

Понравилась раздача? Посмотрите эти:
  • Погнали! / Getaway (Кортни Соломон, Боевик, Криминал, 2013) [HDRip, Професс ...
  • Погнали! / Getaway (Кортни Соломон, Боевик,Криминал, 2013) [HDRip, Професси ...
  • Вирус / Flu (Ким Сон Су, Драма, 2013) [HDTVRip, Любительский (двухголосый з ...
  • Орудие смерти / A-i-deul... (Ли Гю Ман, Триллер, криминал, 2011) [DVDRip, П ...
  • Верное дельце / Une pure affaire (Александр Коффре, Боевик, Комедия, Кримин ...
  • Мои герои / Mes heros (Эрик Беснард, комедия, 2012) [HDRip, Профессиональны ...
  • Номад: Начало / Nomad the Beginning (Томас Диксон, фантастика, боевик, 2013 ...
  • Посылка / The Package (Джесси Джонсон, боевик, 2013) [HDRip, Профессиональн ...
  • Мэрайа Мунди и шкатулка Мидаса / The Adventurer: The Curse of the Midas Box ...
  • Мужество / Wymyk (Грег Зглински, драма, 2011) [DVDRip, Любительский (одного ...
  • 42 / 42 (Брайан Хелгеленд, драма, биография, спорт, 2013) [BDRip, Профессио ...
  • Ночь тамплиера / Night of the Templar (Пол Сэмпсон, Ужасы, фантастика, боев ...
  • Решала (Роман Асхаев, Драма,Криминал, 2012) [WEB-DLRip, Не требуется]
  • 23:59 / 23:59 (Гилберт Чан, Ужасы, 2011) [HDRip, Любительский (одноголосый ...
  • Псы войны / The Dogs of War (Джон Ирвин, боевик, драма, приключения, военны ...
  • Воин / The One Warrior (Том Стаут, фантастика, 2011) [DVDRip,Оригинал,Профе ...
  • Плохая актриса / Bad Actress (Роберт Ли Кинг, комедия, 2011) [DVDRip, Профе ...
  • Супер циклон / Super Cyclone (Лиз Адамс / Liz Adams, боевик, 2012) [HDRip, ...
  • Захват / Carjacked (Джон Бонито, триллер, 2011)[BDRip, Профессиональный (мн ...
  • Tank Feat. T.I. & Kris Stephens / Compliments [2012, RnB,Hip-Hop, HDRip]
  • Трус / Faintheart (Вито Рокко, Комедия, 2008) [BDRip, Профессиональный (дву ...
  • Замёрзший мир / 2012: Ice Age (Трэвис Форт, фантастика, боевик, 2011) [HDRi ...
  • Супершторм в Сиэтле / Seattle Superstorm (Джейсон Бурк, фантастика, боевик ...
  • Олимпиада 2012 / Женщины, Мужчины / Плавание / Квалификация / НТВ+ [30.07.2 ...
  • Искажение / Skew (Сейв Челенз, ужасы, триллер, 2011) [HDRip, Профессиональн ...
  • Информация
    Посетители, находящиеся в группе Гости, не могут оставлять комментарии к данной публикации.