вход на сайт

Имя пользователя :
Пароль :

Восстановление пароля Регистрация
Парни что надо / The Right Stuff (Филип Кауфман, Фантастика, драма, приключения, история, 1983) [BDRip-AVC, Профессиональный (двухголосый, закадровый), Оригинал (английский), Sub]
Рейтинг:
(голосов: 1)



[img]{THEME}/images/logopost.png[/img]



Парни что надо / The Right Stuff
«By flying higher and faster than any other man had ever dared before, Chuck Yeager set the pace for a new breed of hero. Those that had just one thing in common...THE RIGHT STUFF»

Год выпуска: 1983
Страна: США
Производство: The Ladd Company, Colossal Pictures, USFX, Warner Bros.
Жанр: Фантастика, драма, приключения, история

Режиссёр: Филип Кауфман
В ролях: Сэм Шепард, Скотт Гленн, Эд Харрис, Дэннис Куэйд, Фред Уорд, Барбара Хёрши, Ким Стэнли, Вероника Картрайт, Памела Рид, Скотт Полин

Перевод: Профессиональный (двухголосый, закадровый), Оригинал (английский)
Субтитры: английские

Описание: Экранизация бестселлера Тома Вулфа. 1953 год. Карибское море… Реактивный самолет взлетает с борта авианосца, он просто исчезает в небе. Приборы фиксируют: он перешел границу скорости звука… Эта картина — фрагментарная история американской астронавтики с 1947 по 1963 год, когда после долгих и трагических испытаний, американцы наконец вышли в космос.



Качество: BDRip-AVC | Сэмпл
Продолжительность: 03:12:44 час.

Формат: MKV
Видео кодек: AVC
Аудио кодек: AС3
Видео: 1024x576 (16:9), 23.976 fps, Advanced Video Codec ~3500 kbps avg, 0.247 bit/pixel
Аудио #1: 48 kHz, AC3 Dolby Digital, 2 (L,R) ch, ~192 kbps avg - Rus
Аудио #2: 48 kHz, AC3 Dolby Digital, 6 ch, ~448kbps avg - Eng

Дата премьеры (мир): 21 октября 1983

MediaInfo ▼Format : Matroska
Format version : Version 4 / Version 2
File size : 5.57 GiB
Duration : 3h 12mn
Overall bit rate : 4 140 Kbps
Movie name : -=MediaClub - Odessit=-
Encoded date : UTC 2013-11-14 14:56:25
Writing application : mkvmerge v6.2.0 (Promised Land) built on Apr 28 2013 12:22:01
Writing library : libebml v1.3.0 + libmatroska v1.4.0

Video
ID : 1
Format : AVC
Format/Info : Advanced Video Codec
Format profile : [email protected]
Format settings, CABAC : Yes
Format settings, ReFrames : 10 frames
Codec ID : V_MPEG4/ISO/AVC
Duration : 3h 12mn
Bit rate : 3 500 Kbps
Width : 1 024 pixels
Height : 576 pixels
Display aspect ratio : 16:9
Frame rate : 23.976 fps
Color space : YUV
Chroma subsampling : 4:2:0
Bit depth : 8 bits
Scan type : Progressive
Bits/(Pixel*Frame) : 0.247
Stream size : 4.60 GiB (83%)
Writing library : x264 core 130 r2273 b3065e6
Encoding settings : cabac=1 / ref=10 / deblock=1:-2:-2 / analyse=0x3:0x133 / me=umh / subme=11 / psy=1 / psy_rd=1.00:0.20 / mixed_ref=1 / me_range=48 / chroma_me=1 / trellis=2 / 8x8dct=1 / cqm=0 / deadzone=21,11 / fast_pskip=0 / chroma_qp_offset=-3 / threads=6 / lookahead_threads=1 / sliced_threads=0 / nr=0 / decimate=0 / interlaced=0 / bluray_compat=0 / constrained_intra=0 / bframes=9 / b_pyramid=2 / b_adapt=2 / b_bias=0 / direct=3 / weightb=1 / open_gop=0 / weightp=2 / keyint=240 / keyint_min=23 / scenecut=40 / intra_refresh=0 / rc=2pass / mbtree=0 / bitrate=3500 / ratetol=1.0 / qcomp=0.60 / qpmin=0 / qpmax=69 / qpstep=4 / cplxblur=20.0 / qblur=0.5 / ip_ratio=1.40 / pb_ratio=1.30 / aq=1:1.00
Language : English

Audio #1
ID : 2
Format : AC-3
Format/Info : Audio Coding 3
Mode extension : CM (complete main)
Codec ID : A_AC3
Duration : 3h 12mn
Bit rate mode : Constant
Bit rate : 192 Kbps
Channel(s) : 2 channels
Channel positions : Front: L R
Sampling rate : 48.0 KHz
Bit depth : 16 bits
Compression mode : Lossy
Stream size : 265 MiB (5%)
Title : Профессиональный двухголосый
Language : Russian

Audio #2
ID : 3
Format : AC-3
Format/Info : Audio Coding 3
Mode extension : CM (complete main)
Codec ID : A_AC3
Duration : 3h 12mn
Bit rate mode : Constant
Bit rate : 448 Kbps
Channel(s) : 6 channels
Channel positions : Front: L C R, Side: L R, LFE
Sampling rate : 48.0 KHz
Bit depth : 16 bits
Compression mode : Lossy
Stream size : 618 MiB (11%)
Language : English

Text
ID : 4
Format : UTF-8
Codec ID : S_TEXT/UTF8
Codec ID/Info : UTF-8 Plain Text
Language : English

Menu
00:00:00.000 : en:00:00:00.000
00:05:05.222 : en:00:05:05.222
00:07:22.609 : en:00:07:22.609
00:11:22.807 : en:
594a8ce1b66c738f7dd4bae783a72869c6b265e6Парни что надо / The Right Stuff (Филип Кауфман, Фантастика, драма, приключения, история, 1983) [BDRip-AVC, Профессиональный (двухголосый, закадровый), Оригинал (английский), Sub] Парни что надо / The Right Stuff (Филип Кауфман, Фантастика, драма, приключения, история, 1983) [BDRip-AVC, Профессиональный (двухголосый, закадровый), Оригинал (английский), Sub] " />

Аплоадер: Админ, дата: 17-11-2013, 00:17, торрент скачан: 359 раз

Понравилась раздача? Посмотрите эти:
  • Армагеддец / The Worlds End (Эдгар Райт, фантастика, боевик, комедия, 2013) ...
  • За кадром... / In a World...(Лэйк Белл, комедия, 2013) [BDRip-AVC, Професси ...
  • Сезон убийц / Killing Season (Марк Стивен Джонсон, триллер, драма, боевик, ...
  • Грязь / Filth (Джон С. Бейрд, криминал, драма, комедия, 2013) [BDRip-AVC, ...
  • Евротур / EuroTrip (Джефф Шеффер, Алек Берг, Дэвид Мэндел, Комедия, приключ ...
  • Погнали! / Getaway (Кортни Соломон, боевик, криминал, 2013) [BDRip 720p, Пр ...
  • Пастырь / Priest (Скотт Чарльз Стюарт, ужасы, фантастика, боевик, триллер, ...
  • Парни что надо / The Right Stuff (Филип Кауфман, Фантастика, драма, приключ ...
  • Повелитель лавин / Prince Avalanche (Дэвид Гордон Грин, Драма, комедия, 201 ...
  • Посылка / The Package (Джесси Джонсон, боевик, 2013) [BDRip 720p, Профессио ...
  • 42 / 42 (Брайан Хелгеленд, Драма, биография, спорт, 2013) [BDRip 720p, Проф ...
  • Хроника / Chronicle (Джошуа Транк, фантастика, боевик, триллер, драма, 2012 ...
  • Запретная любовь / The Edge of Love (Джон Мэйбери, Драма, мелодрама, военны ...
  • Жизнь Пи / Life Of Pi (Энг Ли, Драма, приключения, 2012) [BDRip 1080p, Проф ...
  • Убить по расписанию / Ticking Clock (Эрни Барбараш, фантастика, боевик, три ...
  • Цельнометаллическая оболочка / Full Metal Jacket (Стэнли Кубрик, драма, вое ...
  • Хранитель времени / Hugo (Мартин Скорсезе, Драма, 2011) [BDRip-AVC, Професс ...
  • Мартовские иды / The Ides of March (Джордж Клуни / George Clooney, драма, 2 ...
  • Персонаж / Stranger Than Fiction (Марк Форстер, Комедия, драма, фантастика, ...
  • Робин Гуд [Режиссёрская версия] / Robin Hood [Directors Cut] (Ридли Скотт / ...
  • Закон доблести / Act of Valor (Майк МакКой, Скотт Во, боевик, триллер, прик ...
  • Похищенная / A Lonely Place to Die (Джулиан Джилби, триллер, криминал, прик ...
  • Викинги / Outlander (Ховард МакКейн, Фантастика, боевик, приключения, 2008) ...
  • Mylene Farmer / Du Temps [2011, Pop, HDTVRip]
  • Футбольные гладиаторы / Ушедшее время / Awaydays (Пэт Холден, драма, кримин ...
  • Информация
    Посетители, находящиеся в группе Гости, не могут оставлять комментарии к данной публикации.