вход на сайт

Имя пользователя :
Пароль :

Восстановление пароля Регистрация
Парни что надо / The Right Stuff (Филип Кауфман, Фантастика, драма, приключения, история, 1983) [BDRip, Профессиональный (двухголосый, закадровый)]
Рейтинг:
(голосов: 1)



[img]{THEME}/images/logopost.png[/img]



Парни что надо / The Right Stuff
«By flying higher and faster than any other man had ever dared before, Chuck Yeager set the pace for a new breed of hero. Those that had just one thing in common...THE RIGHT STUFF»

Год выпуска: 1983
Страна: США
Производство: The Ladd Company, Colossal Pictures, USFX, Warner Bros.
Жанр: Фантастика, драма, приключения, история

Режиссёр: Филип Кауфман
В ролях: Сэм Шепард, Скотт Гленн, Эд Харрис, Дэннис Куэйд, Фред Уорд, Барбара Хёрши, Ким Стэнли, Вероника Картрайт, Памела Рид, Скотт Полин

Перевод: Профессиональный (двухголосый, закадровый)
Субтитры: нет

Описание: Экранизация бестселлера Тома Вулфа. 1953 год. Карибское море… Реактивный самолет взлетает с борта авианосца, он просто исчезает в небе. Приборы фиксируют: он перешел границу скорости звука… Эта картина — фрагментарная история американской астронавтики с 1947 по 1963 год, когда после долгих и трагических испытаний, американцы наконец вышли в космос.



Качество: BDRip | Сэмпл
Продолжительность: 03:12:44 час.

Формат: AVI
Видео кодек: XviD
Аудио кодек: AС3
Видео: 720x400 (16:9), 23.976 fps, XviD build 73 ~1954 kbps avg, 0.283 bit/pixel
Аудио: 48 kHz, AC3 Dolby Digital, 2 (L,R) ch, ~192 kbps avg

Дата премьеры (мир): 21 октября 1983

MediaInfo ▼Format : AVI
Format/Info : Audio Video Interleave
Format profile : OpenDML
File size : 2.91 GiB
Duration : 3h 12mn
Overall bit rate : 2 159 Kbps
Movie name : The.Right.Stuff.1983.XviD.BDRip.-MediaClub
Director : -=MediaClub - Odessit=-
Writing application : VirtualDubMod 1.5.10.3 (build 2550/release)
Writing library : VirtualDubMod build 2550/release

Video
ID : 0
Format : MPEG-4 Visual
Format profile : Advanced [email protected]
Format settings, BVOP : 1
Format settings, QPel : No
Format settings, GMC : No warppoints
Format settings, Matrix : Custom
Codec ID : XVID
Codec ID/Hint : XviD
Duration : 3h 12mn
Bit rate : 1 956 Kbps
Width : 720 pixels
Height : 400 pixels
Display aspect ratio : 16:9
Frame rate : 23.976 fps
Color space : YUV
Chroma subsampling : 4:2:0
Bit depth : 8 bits
Scan type : Progressive
Compression mode : Lossy
Bits/(Pixel*Frame) : 0.283
Stream size : 2.63 GiB (91%)
Writing library : XviD 73

Audio
ID : 1
Format : AC-3
Format/Info : Audio Coding 3
Mode extension : CM (complete main)
Codec ID : 2000
Duration : 3h 12mn
Bit rate mode : Constant
Bit rate : 192 Kbps
Channel(s) : 2 channels
Channel positions : Front: L R
Sampling rate : 48.0 KHz
Bit depth : 16 bits
Compression mode : Lossy
Stream size : 265 MiB (9%)
Alignment : Split accross interleaves
Interleave, duration : 42 ms (1.00 video frame)
Interleave, preload duration : 500 ms


Наши рипы / Набор в РГ / Стол заказов РГ / Стол заказов по РИПам



9ab0eb3097f8e3e7243c544fdc9b5c032f0a98c3Парни что надо / The Right Stuff (Филип Кауфман, Фантастика, драма, приключения, история, 1983) [BDRip, Профессиональный (двухголосый, закадровый)] Парни что надо / The Right Stuff (Филип Кауфман, Фантастика, драма, приключения, история, 1983) [BDRip, Профессиональный (двухголосый, закадровый)] " />

Аплоадер: Админ, дата: 17-11-2013, 00:07, торрент скачан: 359 раз

Понравилась раздача? Посмотрите эти:
  • Вирус / Flu (Ким Сон Су, Драма, 2013) [HDTVRip, Любительский (двухголосый з ...
  • Парни что надо / The Right Stuff (Филип Кауфман, Фантастика, драма, приключ ...
  • Короткометражка Marvel: Агент Картер / Marvel One-Shot: Agent Carter (Луис ...
  • [EN] 42 / 42 (Брайан Хелгеленд, Драма, биография, спорт, 2013) [BDRip, Ориг ...
  • Мужество / Wymyk (Грег Зглински, драма, 2011) [DVDRip, Любительский (одного ...
  • 42 / 42 (Брайан Хелгеленд, драма, биография, спорт, 2013) [BDRip, Профессио ...
  • Образование Чарли Бэнкса / The Education of Charlie Banks (Фред Дерст, Драм ...
  • МЫ. Верим в любовь / W.E. (Мадонна, Драма, мелодрама, история, 2011) [BDRip ...
  • Лучший стрелок / Top Gun (Тони Скотт, боевик, драма, мелодрама, 1986) [BDRi ...
  • Весенние надежды / Hope Springs (Дэвид Фрэнкел, Драма, мелодрама, комедия, ...
  • Псы войны / The Dogs of War (Джон Ирвин, боевик, драма, приключения, военны ...
  • Экипаж / Flight (Роберт Земекис, Драма, 2012) [BDRip, Профессиональный (пол ...
  • Тюремщик / Screwed (Рег Тревисс / Reg Traviss, Драма, 2011) [DVDRip , Люби ...
  • Джефф, живущий дома / Jeff, Who Lives at Home (Джей Дюпласс, Марк Дюпласс, ...
  • Джефф, живущий дома / Jeff, Who Lives at Home (Джей Дюпласс, Марк Дюпласс, ...
  • Захват / Carjacked (Джон Бонито, триллер, 2011)[BDRip, Профессиональный (мн ...
  • Папаша / Starbuck (Кен Скотт, Драма, комедия, 2011) [BDRip, Профессиональны ...
  • Временная петля / Los cronocrímenes (Начо Вигалондо, фантастика, боевик, тр ...
  • Трус / Faintheart (Вито Рокко, Комедия, 2008) [BDRip, Профессиональный (дву ...
  • Супершторм в Сиэтле / Seattle Superstorm (Джейсон Бурк, фантастика, боевик ...
  • Информация
    Посетители, находящиеся в группе Гости, не могут оставлять комментарии к данной публикации.