вход на сайт

Имя пользователя :
Пароль :

Восстановление пароля Регистрация
Бойфренд из будущего / About Time (Ричард Кёртис, Фантастика, драма, комедия, 2013) [BDRip, Дублированный + Оригинал (английский)]
Рейтинг:
(голосов: 1)



[img]{THEME}/images/logopost.png[/img]



Бойфренд из будущего / About Time
«A new funny film about love. With a bit of time travel»
Год выпуска: 2013
Страна: Великобритания
Производство: Translux, Working Title Films, Пифагор (Студия дубляжа)
Жанр: Фантастика, драма, комедия

Режиссёр: Ричард Кёртис
В ролях: Донал Глисон, Рэйчел МакАдамс, Билл Найи, Том Холландер, Марго Робби, Нив Гачев, Ванесса Кирби, Линдсэй Дункан, Лиза Айкхорн, Катрин Стэдмен и др.

Перевод: Дублированный + Оригинал (английский)
Субтитры: Нет
Описание: В возрасте 21 года Тим Лейк обнаруживает, что он может путешествовать во времени. В ночь после очередного неприятного Нового года отец Тима рассказывает ему, что мужчины в его семье всегда имели способность путешествовать во времени. Тим не может изменить историю, но он может изменить то, что происходит или происходило в его собственной жизни.


Премьера (мир): 27 июня 2013
Премьера (РФ): 10 октября 2013, «UPI»
Качество: BDRip
Продолжительность: 02:03:22

Формат: AVI
Видео кодек: XviD
Аудио кодек: AC3
Видео: 720x304 (2.35:1), 23,976 fps, XviD, ~2333 kbps avg, 0.445 bit/pixel
Аудио: 48 kHz, AC3 Dolby Digital, 16 bit, 3/2 (L,C,R,l,r) + LFE ch, ~448.00 kbps
48 kHz, AC3 Dolby Digital, 16 bit, 3/2 (L,C,R,l,r) + LFE ch, ~448.00 kbps
MediaInfo: ▼Общее
Полное имя : C:UsersuserDownloadsBoyfrend.iz.Buduschego.2013.BDRip.avi
Формат : AVI
Формат/Информация : Audio Video Interleave
Профиль формата : OpenDML
Размер файла : 2,80 Гбайт
Продолжительность : 2 ч. 3 м.
Общий поток : 3245 Кбит/сек
Программа кодирования : VirtualDubMod 1.5.10.2 (build 2540/release)
Библиотека кодирования : VirtualDubMod build 2540/release

Видео
Идентификатор : 0
Формат : MPEG-4 Visual
Профиль формата : Advanced [email protected]
Параметр BVOP формата : 2
Параметр QPel формата : Нет
Параметр GMC формата : Без точки перехода
Параметр матрицы формата : Выборочная
Идентификатор кодека : XVID
Идентификатор кодека/Подсказка : XviD
Продолжительность : 2 ч. 3 м.
Битрейт : 2333 Кбит/сек
Ширина : 720 пикселей
Высота : 304 пикселя
Соотношение сторон : 2,35:1
Частота кадров : 23,976 кадра/сек
Цветовое пространство : YUV
Субдискретизация насыщенности : 4:2:0
Битовая глубина : 8 бит
Тип развёртки : Прогрессивная
Метод сжатия : С потерями
Бит/(Пиксели*Кадры) : 0.445
Размер потока : 2,01 Гбайт (72%)
Библиотека кодирования : XviD 65

Аудио #1
Идентификатор : 1
Формат : AC-3
Формат/Информация : Audio Coding 3
Расширение режима : CM (complete main)
Параметр Endianness формата : Big
Идентификатор кодека : 2000
Продолжительность : 2 ч. 3 м.
Вид битрейта : Постоянный
Битрейт : 448 Кбит/сек
Каналы : 6 каналов
Расположение каналов : Front: L C R, Side: L R, LFE
Частота : 48,0 КГц
Битовая глубина : 16 бит
Метод сжатия : С потерями
Размер потока : 395 Мбайт (14%)
Выравнивание : Разделение по промежуткам
Продолжительность промежутка : 42 мс. (1,00 видеокадр)
Время предзагрузки промежутка : 500 мс.

Аудио #2
Идентификатор : 2
Формат : AC-3
Формат/Информация : Audio Coding 3
Расширение режима : CM (complete main)
Параметр Endianness формата : Big
Идентификатор кодека : 2000
Продолжительность : 2 ч. 3 м.
Вид битрейта : Постоянный
Битрейт : 448 Кбит/сек
Каналы : 6 каналов
Расположение каналов : Front: L C R, Side: L R, LFE
Частота : 48,0 КГц
Битовая глубина : 16 бит
Метод сжатия : С потерями
Размер потока : 395 Мбайт (14%)
Выравнивание : Разделение по промежуткам
Продолжительность промежутка : 42 мс. (1,00 видеокадр)
Время предзагрузки промежутка : 500 мс.



74d8f1d02b99319eb2b1cee6f06cac2650d45fdfБойфренд из будущего / About Time (Ричард Кёртис, Фантастика, драма, комедия, 2013) [BDRip, Дублированный + Оригинал (английский)] Бойфренд из будущего / About Time (Ричард Кёртис, Фантастика, драма, комедия, 2013) [BDRip, Дублированный + Оригинал (английский)] " />

Аплоадер: Админ, дата: 2-01-2014, 21:51, торрент скачан: 359 раз

Понравилась раздача? Посмотрите эти:
  • Бойфренд из будущего / About Time (Ричард Кёртис, Фантастика, драма, комеди ...
  • Бойфренд из будущего / About Time (Ричард Кёртис, Фантастика, драма, комеди ...
  • Бойфренд из будущего / About Time (Ричард Кёртис, Фантастика, драма, комеди ...
  • Бойфренд из будущего / About Time (Ричард Кёртис, Фантастика, драма, комеди ...
  • Бойфренд из будущего / About Time (Ричард Кёртис, Фантастика, драма, комеди ...
  • Одноклассники 2 / Grown Ups 2 (Деннис Дуган, Комедия, 2013) [BDRip, Професс ...
  • Кровью и потом: Анаболики / Pain & Gain (Майкл Бэй, криминал, комедия, трил ...
  • Миллион для чайников / The Brass Teapot (Рамаа Мосли, Фэнтези, триллер, ком ...
  • Даю год / I Give It a Year (Дэн Мазер, Мелодрама, комедия, 2013) [DVDRip, Д ...
  • Жил-был тигр / Ek Tha Tiger (Кабир Кхан, боевик, триллер , 2012) [ HDRip, ...
  • Легенда о МорДу / The Legend of MorDu (Брайан Ларсен, Короткометражный, ска ...
  • Путешествие на дно моря / Voyage to the Bottom of the Sea (Ирвин Аллен / I ...
  • Кажется, я люблю свою жену / I Think I Love My Wife (Крис Рок, Драма, мелод ...
  • Боец из трущоб / Gutter King (Кейт Алан Моррис / Keith Alan Morris, боевик, ...
  • Приключения Тинтина: Тайна Единорога / The Adventures of Tintin (Стивен Спи ...
  • Гениальный папа / Father of Invention (Трент Купер, Драма, комедия, 2010) [ ...
  • Жизнь за гранью / After.Life (Агнешка Войтович-Восло, Ужасы, триллер, драм ...
  • Глаз шторма / The Eye of the Storm (Фред Скеписи, Драма, 2011) [HDRip, Проф ...
  • Шаг вперед 4 / Step Up Revolution (Скотт Спир, Драма, мелодрама, музыка, 20 ...
  • Сдохни, Джон Такер / John Tucker Must Die (Бетти Томас, мелодрама, комедия, ...
  • Информация
    Посетители, находящиеся в группе Гости, не могут оставлять комментарии к данной публикации.