вход на сайт

Имя пользователя :
Пароль :

Восстановление пароля Регистрация
Бойфренд из будущего / About Time (Ричард Кёртис, Фантастика, драма, комедия, 2013) [HDRip-AVC, Дублированный, Subs]
Рейтинг:
(голосов: 1)



[img]{THEME}/images/logopost.png[/img]



Бойфренд из будущего / About Time
«A new funny film about love. With a bit of time travel»
Год выпуска: 2013
Страна: Великобритания
Производство: Translux, Working Title Films, Пифагор (Студия дубляжа)
Жанр: Фантастика, драма, комедия

Режиссёр: Ричард Кёртис
В ролях: Донал Глисон, Рэйчел МакАдамс, Билл Найи, Том Холландер, Марго Робби, Нив Гачев, Ванесса Кирби, Линдсэй Дункан, Лиза Айкхорн, Катрин Стэдмен и др.

Перевод: Дублированный
Субтитры: Русские
Описание: В возрасте 21 года Тим Лейк обнаруживает, что он может путешествовать во времени. В ночь после очередного неприятного Нового года отец Тима рассказывает ему, что мужчины в его семье всегда имели способность путешествовать во времени. Тим не может изменить историю, но он может изменить то, что происходит или происходило в его собственной жизни.


Премьера (мир): 27 июня 2013
Премьера (РФ): 10 октября 2013, «UPI»
Качество: HDRip-AVC
Продолжительность: 02:03:22

Формат: MKV
Видео кодек: H.264
Аудио кодек: AC3
Видео: 1024x428 (2.40:1), 23,976 fps, AVC, ~1990 kbps avg, 0.189 bit/pixel
Аудио: 48 kHz, AC3 Dolby Digital, 6 ch, ~384.00 kbps avg
MediaInfo: ▼Общее
Уникальный идентификатор : 182079042704053430671597585197997783417 (0x88FB25E7304FCD218ADA1A66CE8C7979)
Полное имя : C:UsersuserDownloadsAbout.Time.2013.HDRip.(AVC).mkv
Формат : Matroska
Версия формата : Version 2
Размер файла : 2,05 Гбайт
Продолжительность : 2 ч. 3 м.
Общий поток : 2375 Кбит/сек
Дата кодирования : UTC 2014-01-02 13:32:22
Программа кодирования : mkvmerge v5.6.0 (Kenya Kane) built on Jun 29 2012 15:01:44
Библиотека кодирования : libebml v1.2.3 + libmatroska v1.3.0

Видео
Идентификатор : 1
Формат : AVC
Формат/Информация : Advanced Video Codec
Профиль формата : [email protected]
Параметр CABAC формата : Да
Параметр ReFrames формата : 11 кадров
Идентификатор кодека : V_MPEG4/ISO/AVC
Продолжительность : 2 ч. 3 м.
Битрейт : 1990 Кбит/сек
Ширина : 1024 пикселя
Высота : 428 пикселей
Соотношение сторон : 2,40:1
Режим частоты кадров : Постоянный
Частота кадров : 23,976 кадра/сек
Цветовое пространство : YUV
Субдискретизация насыщенности : 4:2:0
Битовая глубина : 8 бит
Тип развёртки : Прогрессивная
Бит/(Пиксели*Кадры) : 0.189
Размер потока : 1,67 Гбайт (82%)
Библиотека кодирования : x264 core 140 r2377 1ca7bb9
Настройки программы : cabac=1 / ref=11 / deblock=1:-3:-2 / analyse=0x3:0x133 / me=umh / subme=9 / psy=1 / psy_rd=1.00:0.00 / mixed_ref=1 / me_range=24 / chroma_me=1 / trellis=2 / 8x8dct=1 / cqm=0 / deadzone=21,11 / fast_pskip=0 / chroma_qp_offset=-2 / threads=12 / lookahead_threads=2 / sliced_threads=0 / nr=0 / decimate=1 / interlaced=0 / bluray_compat=0 / constrained_intra=0 / bframes=9 / b_pyramid=2 / b_adapt=2 / b_bias=0 / direct=3 / weightb=1 / open_gop=0 / weightp=2 / keyint=240 / keyint_min=23 / scenecut=40 / intra_refresh=0 / rc=2pass / mbtree=0 / bitrate=1990 / ratetol=1.0 / qcomp=0.65 / qpmin=0 / qpmax=69 / qpstep=4 / cplxblur=20.0 / qblur=0.5 / ip_ratio=1.40 / pb_ratio=1.30 / aq=1:0.90
Язык : English
Default : Да
Forced : Нет

Аудио
Идентификатор : 2
Формат : AC-3
Формат/Информация : Audio Coding 3
Расширение режима : CM (complete main)
Параметр Endianness формата : Big
Идентификатор кодека : A_AC3
Продолжительность : 2 ч. 3 м.
Вид битрейта : Постоянный
Битрейт : 384 Кбит/сек
Каналы : 6 каналов
Расположение каналов : Front: L C R, Side: L R, LFE
Частота : 48,0 КГц
Битовая глубина : 16 бит
Метод сжатия : С потерями
Размер потока : 339 Мбайт (16%)
Язык : Russian
Default : Да
Forced : Нет

Текст #1
Идентификатор : 3
Формат : UTF-8
Идентификатор кодека : S_TEXT/UTF8
Идентификатор кодека/Информация : UTF-8 Plain Text
Заголовок : forced
Язык : Russian
Default : Да
Forced : Нет

Текст #2
Идентификатор : 4
Формат : UTF-8
Идентификатор кодека : S_TEXT/UTF8
Идентификатор кодека/Информация : UTF-8 Plain Text
Заголовок : full
Язык : Russian
Default : Нет
Forced : Нет

Меню
00:00:00.00
305aba1546b4184998ef7ecb64164882efa221ffБойфренд из будущего / About Time (Ричард Кёртис, Фантастика, драма, комедия, 2013) [HDRip-AVC, Дублированный, Subs] Бойфренд из будущего / About Time (Ричард Кёртис, Фантастика, драма, комедия, 2013) [HDRip-AVC, Дублированный, Subs] " />

Аплоадер: Админ, дата: 2-01-2014, 20:27, торрент скачан: 359 раз

Понравилась раздача? Посмотрите эти:
  • Бойфренд из будущего / About Time (Ричард Кёртис, Фантастика, драма, комеди ...
  • Бойфренд из будущего / About Time (Ричард Кёртис, Фантастика, драма, комеди ...
  • Бойфренд из будущего / About Time (Ричард Кёртис, Фантастика, драма, комеди ...
  • Бойфренд из будущего / About Time (Ричард Кёртис, Фантастика, драма, комеди ...
  • Бойфренд из будущего / About Time (Ричард Кёртис, Фантастика, драма, комеди ...
  • Бойфренд из будущего / About Time (Ричард Кёртис, Фантастика, драма, комеди ...
  • Бойфренд из будущего / About Time (Ричард Кёртис, Фантастика, драма, комеди ...
  • Бунраку / Bunraku (Гай Моше, боевик, триллер, драма, 2010) [BDRip-AVC, Проф ...
  • Джобс: Империя соблазна / jOBS (Джошуа Майкл Штерн, драма, биография, 2013) ...
  • Заклятие / The Conjuring (Джеймс Ван, ужасы, триллер, 2013) [BDRip 720р, Ду ...
  • Заклятие / The Conjuring (Джеймс Ван, ужасы, триллер, 2013) [BDRip 1080p, Д ...
  • Поймай толстуху, если сможешь / Identity Thief [Theatrical Cut] (Сет Гордон ...
  • Больше, чем любовь / A Lot Like Love (Найджел Коул, Драма, мелодрама, комед ...
  • Перелом / Fracture (Грегори Хоблит, Триллер, драма, криминал, детектив, 200 ...
  • Даю год / I Give It a Year (Дэн Мазер, мелодрама, комедия, 2012) [BDRip-AVC ...
  • Суррогат / The Sessions (Бен Луин, Драма, 2012) [BDRip-AVC, Профессиональны ...
  • Начинающие / Beginners (Майк Миллс / Mike Mills, драма, мелодрама, комедия, ...
  • Тонкий Лед / The Convincer (Джилл Шпрехер, Драма, комедия, криминал, 2011) ...
  • Морской бой / Battleship (Питер Берг, фантастика, боевик, триллер, приключе ...
  • Морской бой / Battleship (Питер Берг, Фантастика, боевик, триллер, приключе ...
  • Перелом / Fracture (Грегори Хоблит, триллер, драма, криминал, детектив, 200 ...
  • Помогите Стать Отцом / Not Suitable For Children (Питер Темплмен, Мелодрама ...
  • Безумные мелодии: Кажется я видел котика / Looney Tunes: I Tawt I Taw а Pud ...
  • Заражение / Contagion (Стивен Содерберг, Фантастика, 2011) [BDRip 1080p, Пр ...
  • Преследование / Слежка / Following (Кристофер Нолан, триллер, драма, кримин ...
  • Информация
    Посетители, находящиеся в группе Гости, не могут оставлять комментарии к данной публикации.