вход на сайт

Имя пользователя :
Пароль :

Восстановление пароля Регистрация
Чрево / Womb (Бенедек Флигауф, фантастика, драма, мелодрама, 2010) [HDRip, Профессиональный, (многоголосый, закадровый)]
Рейтинг:
(голосов: 1)



[img]{THEME}/images/logopost.png[/img]



• Чрево / Womb •
♥ Год выпуска: 2010
♥ Страна: Германия, Венгрия, Франция
♥ Производство: arte France Cinéma, Asap Films, Boje Buck Produktion GmbH
♥ Жанр: фантастика, драма, мелодрама

♥ Режиссёр: Бенедек Флигауф
♥ В ролях: Ева Грин, Мэтт Смит, Лесли Мэнвилл, Питер Уайт, Иштван Ленар, Ханна Мюррэй, Руби О. Фи, Тристан Кристофер, Джесси Хоффманн, Наталия Тена

♥ Перевод: Профессиональный, (многоголосый, закадровый)
♥ Субтитры: нет


Описание

Недалекое будущее. Семилетние Ребекка и Томас живут в небольшом прибрежном городке и дружат с самого детства. После окончания школы семнадцатилетняя Ребекка возвращается в родной городок и у нее завязывается бурный роман с подросшим Томасом.

Спустя несколько месяцев Томас погибает в нелепой автокатастрофе. Отчаявшаяся Ребекка не находит себе места до тех пор, пока ей не приходит в голову безумная идея. В недалеком будущем вполне обыденным явлением стало клонирование людей, пусть общество и не до конца принимает это научное изобретение. Ребекка решает дать новую жизнь своему потерянному возлюбленному…

В доме на берегу моря повзрослевшая Ребекка растит обаятельного сына Томаса, который уверен, что его отец погиб в автокатастрофе. Ребекка никогда не говорит вслух о клонировании. Пока не появляется кое-кто из прошлой жизни и тайное не становится явным.



Тех. данные

♥ Качество: HDRip |Сэмпл
♥ Продолжительность: 01:39:43

♥ Формат: AVI
♥ Видео кодек: XviD
♥ Аудио кодек: AC3
♥ Видео: 720x304, (2.35:1), XviD, 23.976 fps, 2027 kb/s, 0.386bit/pixel
♥ Аудио: Русский: AC3, 48.0 KHz, 384 kb/s (6 ch), Front: L C R, Side: L R, LFE
♥ Аудио: English: AC3, 48.0 KHz, 384 kb/s (6 ch), Front: L C R, Side: L R, LFE

Доп. информация

MediaInfo ▼TextGeneral
Complete name : D:DownloadsChrevo.2010.HDRip..avi
Format : AVI
Format/Info : Audio Video Interleave
File size : 2.19 GiB
Duration : 1h 51mn
Overall bit rate : 2 808 Kbps
Writing application : VirtualDubMod 1.5.10.2 (build 2540/release)
Writing library : VirtualDubMod build 2540/release

Video
ID : 0
Format : MPEG-4 Visual
Format profile : Advanced [email protected]
Format settings, BVOP : 2
Format settings, QPel : No
Format settings, GMC : No warppoints
Format settings, Matrix : Custom
Codec ID : XVID
Codec ID/Hint : XviD
Duration : 1h 51mn
Bit rate : 2 027 Kbps
Width : 720 pixels
Height : 304 pixels
Display aspect ratio : 2.35:1
Frame rate : 24.000 fps
Color space : YUV
Chroma subsampling : 4:2:0
Bit depth : 8 bits
Scan type : Progressive
Compression mode : Lossy
Bits/(Pixel*Frame) : 0.386
Stream size : 1.58 GiB (72%)
Writing library : XviD 1.2.1 (UTC 2008-12-04)

Audio #1
ID : 1
Format : AC-3
Format/Info : Audio Coding 3
Mode extension : CM (complete main)
Codec ID : 2000
Duration : 1h 51mn
Bit rate mode : Constant
Bit rate : 384 Kbps
Channel(s) : 6 channels
Channel positions : Front: L C R, Side: L R, LFE
Sampling rate : 48.0 KHz
Bit depth : 16 bits
Compression mode : Lossy
Delay relative to video : 1s 0ms
Stream size : 307 MiB (14%)
Alignment : Split accross interleaves
Interleave, duration : 42 ms (1.00 video frame)
Interleave, preload duration : 500 ms

Audio #2
ID : 2
Format : AC-3
Format/Info : Audio Coding 3
Mode extension : CM (complete main)
Codec ID : 2000
Duration : 1h 51mn
Bit rate mode : Constant
Bit rate : 384 Kbps
Channel(s) : 6 channels
Channel positions : Front: L C R, Side: L R, LFE
Sampling rate : 48.0 KHz
Bit depth : 16 bits
Compression mode : Lossy
Stream size : 307 MiB (14%)
Alignment : Split accross interleaves
Interleave, duration : 42 ms (1.00 video frame)
Interleave, preload duration : 500 ms

Премьеры ▼♥ Дата премьеры (мир): 15 июля 2010
♥ Дата премьеры (РФ): 20 января 2011, «Каравелла DDC»


Релиз Группы "Virtus"

Стол заказов / Вступление в РГ / Благодарности, критика и другое


7f0ea470b1532ab51ca7f198c102cb690830e703Чрево / Womb (Бенедек Флигауф, фантастика, драма, мелодрама, 2010) [HDRip, Профессиональный, (многоголосый, закадровый)] Чрево / Womb (Бенедек Флигауф, фантастика, драма, мелодрама, 2010) [HDRip, Профессиональный, (многоголосый, закадровый)] " />

Аплоадер: Админ, дата: 4-12-2012, 23:23, торрент скачан: 359 раз

Понравилась раздача? Посмотрите эти:
  • Чрево / Womb (Бенедек Флигауф / Benedek Fliegauf, фантастика, драма, 2010) ...
  • Чрево / Womb (Бенедек Флигауф / Benedek Fliegauf, фантастика, драма, 2010) ...
  • Погнали! / Getaway (Кортни Соломон, Боевик, Криминал, 2013) [HDRip, Професс ...
  • Верное дельце / Une pure affaire (Александр Коффре, Боевик, Комедия, Кримин ...
  • Мужество / Wymyk (Грег Зглински, драма, 2011) [DVDRip, Любительский (одного ...
  • Ночь тамплиера / Night of the Templar (Пол Сэмпсон, Ужасы, фантастика, боев ...
  • Звук моего голоса / Sound of My Voice (Зал Батманглидж, триллер, драма, 201 ...
  • 23:59 / 23:59 (Гилберт Чан, Ужасы, 2011) [HDRip, Любительский (одноголосый ...
  • Любовь на кончиках пальцев / Populaire (Режис Ройнсар, Мелодрама, комедия, ...
  • Безопасность не гарантируется / Safety Not Guaranteed (Колин Треворроу, фан ...
  • Любовь на кончиках пальцев / Populaire (Режис Ройнсар, Мелодрама, комедия, ...
  • В хлам / Smashed (Джеймс Понсольдт, Драма, комедия, 2012) [HDRip, Профессио ...
  • Суперстар / Superstar (Ксавье Джианноли, Драма, комедия, 2012) [HDRip, Проф ...
  • Простые истины / Straight As (Джеймс Кокс, драма, комедия, 2013) [HDRip, П ...
  • Плохая актриса / Bad Actress (Роберт Ли Кинг, комедия, 2011) [DVDRip, Профе ...
  • Доля ангелов / The Angels Share (Кен Лоуч, драма, комедия, 2012) [HDRip, Пр ...
  • Супер циклон / Super Cyclone (Лиз Адамс / Liz Adams, боевик, 2012) [HDRip, ...
  • Захват / Carjacked (Джон Бонито, триллер, 2011)[BDRip, Профессиональный (мн ...
  • Битва в пустыне / The Objective (Дэниэл Мирик, ужасы, фантастика, триллер, ...
  • Чрево / Womb (Бенедек Флигауф, Драма, 2010) [DVDRip, Профессиональный (мног ...
  • Чрево / Womb (Бенедек Флигауф, Драма, 2010) [DVDRip, Профессиональный (мног ...
  • Супершторм в Сиэтле / Seattle Superstorm (Джейсон Бурк, фантастика, боевик ...
  • Девушки в опасности / Damsels in Distress (Уит Стиллман, драма, мелодрама, ...
  • Глаз шторма / The Eye of the Storm (Фред Скеписи, Драма, 2011) [HDRip, Проф ...
  • Табу / Tabu (Мигель Гомеш, Драма, мелодрама, 2012) [DVDRip, Профессиональны ...
  • Информация
    Посетители, находящиеся в группе Гости, не могут оставлять комментарии к данной публикации.