вход на сайт

Имя пользователя :
Пароль :

Восстановление пароля Регистрация
Звездный крейсер Найденион / Nydenion - Krieg der Kolonien (Джек Мойк, фантастика, 2010) [HDRip, Профессиональный (многоголосый закадровый)]
Рейтинг:
(голосов: 1)



[img]{THEME}/images/logopost.png[/img]



Звездный крейсер Найденион / Nydenion - Krieg der Kolonien

Год выпуска: 2010
Страна: Германия
Производство: Hessen-Invest Film, Magna Mana FX, Magna Mana Production
Жанр: фантастика

Режиссёр: Джек Мойк
В ролях:Андреас Аренс, Кристина Даль Кэнтон, Стефани Даль Кэнтон, Санг Хен Чо, Майкл Клеменс, Торстен Клоос, Матиас Деринг, Ральф Эркель, Александра Фельдманн, Майя Фучс, Майкл Герхард, Стефан Герхард, Жан Хэнк, Андреас Хоун, Торстен Хелд,

Перевод: Профессиональный (многоголосый закадровый)
Субтитры: отсутствуют

Описание: События разворачиваются в далеком будущем. Здесь идет бесконечная война между множеством колоний, которые давно перестали безоговорочно выполнять приказы метрополии и превратились в могущественные государства. Ожесточенное противостояние между ними длится уже более 50 лет, а количество жертв приблизилось к миллиарду. В этом аду летчиком-истребителем работает Рик Уолкер, которому поручают сверхсекретное задание: доставить некую женщину к месту, где состоится очередная серия переговоров о прекращении военных действий…



Качество: HDRip | Сэмпл
Продолжительность: 01:30:04 час.

Формат: AVI
Видео кодек: XviD
Аудио кодек: MP3
Видео: 688x384 (1.79:1), 23.976 fps, XviD build 50 ~949 kbps avg, 0.15 bit/pixel
Аудио: 48 kHz, MPEG Layer 3, 2 ch, ~128.00 kbps avg
MediaInfo ▼Общее
Полное имя : С:vezdnyj_krejser_Najdenion_2010_HDRip_700.avi
Формат : AVI
Формат/Информация : Audio Video Interleave
Размер файла : 700 Мбайт
Продолжительность : 1 ч. 30 м.
Общий поток : 1087 Кбит/сек
Программа кодирования : VirtualDubMod 1.5.10.3 | www.virtualdub-fr.org || (build 2550/release)
Библиотека кодирования : VirtualDubMod build 2550/release

Видео
Идентификатор : 0
Формат : MPEG-4 Visual
Профиль формата : Advanced
Параметр BVOP формата : 1
Параметр QPel формата : Нет
Параметр GMC формата : Без точки перехода
Параметр матрицы формата : Default (MPEG)
Идентификатор кодека : XVID
Идентификатор кодека/Подсказка : XviD
Продолжительность : 1 ч. 30 м.
Битрейт : 950 Кбит/сек
Ширина : 688 пикселей
Высота : 384 пикселя
Соотношение сторон : 16:9
Частота кадров : 23,976 кадра/сек
Цветовое пространство : YUV
Субдискретизация насыщенности : 4:2:0
Битовая глубина : 8 бит
Тип развёртки : Прогрессивная
Метод сжатия : С потерями
Бит/(Пиксели*Кадры) : 0.150
Размер потока : 612 Мбайт (87%)
Библиотека кодирования : XviD 1.2.1 (UTC 2008-12-04)

Аудио
Идентификатор : 1
Формат : MPEG Audio
Версия формата : Version 1
Профиль формата : Layer 3
Идентификатор кодека : 55
Идентификатор кодека/Подсказка : MP3
Продолжительность : 1 ч. 30 м.
Вид битрейта : Постоянный
Битрейт : 128 Кбит/сек
Каналы : 2 канала
Частота : 48,0 КГц
Метод сжатия : С потерями
Размер потока : 82,5 Мбайт (12%)
Выравнивание : Соединение по промежуткам
Продолжительность промежутка : 42 мс. (1,00 видеокадр)
Время предзагрузки промежутка : 504 мс.
Библиотека кодирования : LAME3.98r
Настройки программы : -m s -V 4 -q 2 -lowpass 17 -b 128
Премьера ▼премьера (мир): 28 апреля 2011
релиз на DVD: 13 ноября 2012, «Lizard Cinema Trade»



42683024f26388e4234290e8e6b5b7a9240fc8f0Звездный крейсер Найденион / Nydenion - Krieg der Kolonien (Джек Мойк, фантастика, 2010) [HDRip, Профессиональный (многоголосый закадровый)] Звездный крейсер Найденион / Nydenion - Krieg der Kolonien (Джек Мойк, фантастика, 2010) [HDRip, Профессиональный (многоголосый закадровый)] " />

Аплоадер: Админ, дата: 18-11-2012, 12:13, торрент скачан: 359 раз

Понравилась раздача? Посмотрите эти:
  • Грязная кампания за честные выборы / The Campaign (Джей Роуч , Комедия,201 ...
  • Это - Англия. Год 1986 / This Is England 86 // Сезон 1, эпизоды с 1 по 4 (и ...
  • Рождённый свободным / The Colt (Елена Ланская, драма, боевик, история, 200 ...
  • Блинки: Плохой робот / BlinkyTM (Рори Робинсон, короткометражка, ужасы, фан ...
  • Двенадцать бедствий на Рождество / The 12 Disasters of Christmas (Стивен Р. ...
  • Злые птицы: Хэллоуин / Angry Birds: HamOWeen (Джей Ройвайнен, Мультфильм, к ...
  • Звёздный Крейсер Галактика / Battlestar Galactica // Сезон 1, эпизоды с 1по ...
  • Путешествие на дно моря / Voyage to the Bottom of the Sea (Ирвин Аллен / I ...
  • Кажется, я люблю свою жену / I Think I Love My Wife (Крис Рок, Драма, мелод ...
  • Огненный шторм / Firestorm (Дин Семлер, Боевик, Триллер, 1998) [DVDRip, Про ...
  • Бог любви / God of Love (Люк Мэзени, Короткометражка, фэнтези, комедия, мел ...
  • Любовь по расписанию / Поезд (Сергей Мезенцев, мелодрама, 2012) [HDTVRip, Н ...
  • Вечерний Ургант // Сезон 2. Выпуск 63 (ТВ-шоу, 20.12.2012) [SATRip, Не треб ...
  • Заместитель / Il supplente (Андреа Жублин, Короткометражка, комедия, 2007) ...
  • Покорить высоту / Take It to the Limit (Сэм Кит / Sam Kieth, семейный, 2000 ...
  • Светлячок. Воссоединение Коричневых плащей к 10 годовщине / Firefly 10th An ...
  • У дьявола нет лица / Plasterhead (Кевин Хиггинс / Kevin Higgins, ужасы, три ...
  • Брат якудзы / Brother (Такеши Китано, триллер, драма, криминал, 2000) [HDRi ...
  • Детский душ / Baby Shower (Pablo Illanes, Ужасы, 2011) [DVDRip, Любительски ...
  • Дикая штучка / Wild Target (Джонатан Линн, боевик, драма, комедия, криминал ...
  • Привет, Джули! / Flipped (Роб Райнер, драма, мелодрама, комедия , 2010) [HD ...
  • Секс и Дзен 3D / 3D rou pu tuan zhi ji le bao jian (Кристофер Сунь Лэп Ки, ...
  • Хранители сокровищ / Treasure Guards (Айэйн Б. МакДональд, приключения, 201 ...
  • Пожирая живых / Ночь зомби / Zombie Night (Дэвид Дж. Фрэнсис, Ужасы, комеди ...
  • Нет мужчин - нет проблем / Without Men (Габриела Тальявини, Комедия, 2011) ...
  • Информация
    Посетители, находящиеся в группе Гости, не могут оставлять комментарии к данной публикации.