вход на сайт

Имя пользователя :
Пароль :

Восстановление пароля Регистрация
Бессмертные: Война миров / Immortel (Энки Билал,фантастика, драма, детектив, боевик,2004) [HDRip, Дубляж]
Рейтинг:
(голосов: 1)



[img]{THEME}/images/logopost.png[/img]



Бессмертные: Война миров / Immortel


Год выпуска: 2004
Страна: Франция, Великобритания, Италия
Производство: Telema
Жанр: фантастика, драма, детектив, боевик

Режиссёр: Энки Билал
В ролях:Линда Харди, Томас Кречманн, Шарлотта Рэмплинг, Фредерик Пьеро, Томас М. Поллард, Янн Коллетт, Деррик Бреннер, Оливье Ашар, Пол Бэнди, Пол Баррет

Перевод: Дубляж
Субтитры: Нет

Описание: 2095 год. Над трехуровневым Нью-Йорком парит пирамида бессмертных богов, зловещая корпорация «Евгеника» похищает людей для своих тайных экспериментов, а в мрачных закоулках рыщет серийный убийца, про которого известно лишь то, что он — нечеловек. Здесь Джилл, загадочную женщину с синими волосами и синими слезами, ждет встреча с древним богом Гором, приговоренным другими богами к смерти. У него есть всего семь дней, чтобы найти человеческую оболочку и соблазнить Джилл, обладающую таинственным даром и способную спасти обреченное божество. Единственный выбор Гора — тело замороженного 30 лет назад бунтаря Никопола, которому известны страшные тайны Нью-Йорка будущего… Примечания: Ошеломляющий своей красотой и размахом фантастический боевик, созданный по мотивам его комиксов "Женщина-ловушка" и "Ярмарка бессмертных", сочетает в себе компьютерную графику высочайшего уровня и блистательную игру реальных актеров, действующих в антураже загадочного и грандиозного мира будущего.



Качество: HDRip
Продолжительность: 01:39:45

Формат: AVI
Видео кодек: XviD
Аудио кодек: MPEG Layer 3
Видео: 688x384 (1.87:1), 24.000 fps, XviD build 50 ~905 kbps avg, 0.143 bit/pixel
Аудио: 48 kHz, MPEG Layer 3, 2 ch, ~128.00 kbps avg

премьера (мир):13 марта 2004
премьера (РФ):13 мая 2004, «Централ Партнершип»

"Media Info" ▼Text
General
Format : AVI
Format/Info : Audio Video Interleave
File size : 743 MiB
Duration : 1h 39mn
Overall bit rate : 1 042 Kbps
Writing application : VirtualDubMod 1.5.10.2 (build 2540/release)
Writing library : VirtualDubMod build 2540/release
Video #0
ID : 0
Format : MPEG-4 Visual
Format profile : Advanced [email protected]
Format settings, BVOP : Yes
Format settings, QPel : No
Format settings, GMC : No warppoints
Format settings, Matrix : Default (H.263)
Codec ID : XVID
Codec ID/Hint : XviD
Duration : 1h 39mn
Bit rate : 905 Kbps
Width : 688 pixels
Height : 384 pixels
Display aspect ratio : 16:9
Frame rate : 24.000 fps
Color space : YUV
Chroma subsampling : 4:2:0
Bit depth : 8 bits
Scan type : Progressive
Compression mode : Lossy
Bits/(Pixel*Frame) : 0.143
Stream size : 645 MiB (87%)
Writing library : XviD 1.2.1 (UTC 2008-12-04)
Audio #1
ID : 1
Format : MPEG Audio
Format version : Version 1
Format profile : Layer 3
Codec ID : 55
Codec ID/Hint : MP3
Duration : 1h 39mn
Bit rate mode : Constant
Bit rate : 128 Kbps
Channel(s) : 2 channels
Sampling rate : 48.0 KHz
Compression mode : Lossy
Stream size : 91.3 MiB (12%)
Alignment : Aligned on interleaves
Interleave, duration : 42 ms (1.00 video frame)
Interleave,
7dfffb2f676bd48b0e5b3bcf5ab6744edbdd26d5Бессмертные: Война миров / Immortel (Энки Билал,фантастика, драма, детектив, боевик,2004) [HDRip, Дубляж] Бессмертные: Война миров / Immortel (Энки Билал,фантастика, драма, детектив, боевик,2004) [HDRip, Дубляж] " />

Аплоадер: Админ, дата: 27-10-2012, 18:25, торрент скачан: 359 раз

Понравилась раздача? Посмотрите эти:
  • Погнали! / Getaway (Кортни Соломон, Боевик,Криминал, 2013) [HDRip, Професси ...
  • Война миров Z [Театральная версия] / World War Z [Theatrical Cut] (Марк Фор ...
  • Решала (Роман Асхаев, Драма,Криминал, 2012) [WEB-DLRip, Не требуется]
  • Звук моего голоса / Sound of My Voice (Зал Батманглидж, триллер, драма, 201 ...
  • Чемпионат Италии 2012-13 / 36-й тур / Рома — Кьево / НТВ+ [07.05.2013, SD, ...
  • Скуби-Ду! Маска Синего Сокола / Scooby-Doo! Mask Of The Blue Falcon (Оливье ...
  • Бессмертные: Война миров / Immortel (ad vitam) [2004, Фантастика, Боевик, Д ...
  • Бессмертные: Война миров / Immortel (ad vitam) (Энки Билал, мультфильм, фан ...
  • Бессмертные: Война миров / Immortel (Энки Билал,мультфильм, фантастика, фэн ...
  • Молодежный чемпионат мира 2012 (U-20). Четвертьфинал: Россия - Чехия [02.01 ...
  • Чемпионат Европы 2012 / Группа C / 1-й тур / Ирландия — Хорватия / ТРК Футб ...
  • Чемпионат Европы 2012 / Группа D / 1-й тур / Украина - Швеция / Спорт 1 [11 ...
  • Олимпиада 2012 / Мужчины / Группа D / 1-й тур / Испания — Япония / НТВ+ [Фу ...
  • Олимпиада 2012 / Футбол / Мужчины / Группа A / 3-й тур / Великобритания - У ...
  • Tank Feat. T.I. & Kris Stephens / Compliments [2012, RnB,Hip-Hop, HDRip]
  • Спартанец / Spartan (Дэвид Мэмет, боевик, триллер, драма, криминал, детекти ...
  • Бессмертные: Война миров / Immortel (ad vitam) (Энки Билал / фантастика, др ...
  • Неделя в NBA с В.Гомельским / НТВ+ [28.06.2011, SD, XviD, RU, SAT]
  • Чемпионат Европы 2012 / Группа B / 1-й тур / Германия - Португалия / Спорт ...
  • Замёрзший мир / 2012: Ice Age (Трэвис Форт, фантастика, боевик, 2011) [HDRi ...
  • Супершторм в Сиэтле / Seattle Superstorm (Джейсон Бурк, фантастика, боевик ...
  • Олимпиада 2012 / Женщины, Мужчины / Плавание / Квалификация / НТВ+ [30.07.2 ...
  • Девушки в опасности / Damsels in Distress (Уит Стиллман, драма, мелодрама, ...
  • Ничего, кроме правды / Nothing But the Truth (Род Лури, триллер, драма, 200 ...
  • Петля времени / Looper (Райан Джонсон, фантастика, боевик, триллер, 2012) [ ...
  • Информация
    Посетители, находящиеся в группе Гости, не могут оставлять комментарии к данной публикации.