вход на сайт

Имя пользователя :
Пароль :

Восстановление пароля Регистрация
День второй: Битва за Нью-Йорк / Battle: New York, Day 2 (Эндрю Беллвар, фантастика, 2011) [HDRip, Профессиональное (многоголосый, закадровый)]
Рейтинг:
(голосов: 1)



[img]{THEME}/images/logopost.png[/img]



День второй: Битва за Нью-Йорк / Battle: New York, Day 2

Год выпуска: 2011
Страна: США
Выпущено: Mayors Office of FilmTouchdown
Жанр: фантастика

Режиссёр: Эндрю Беллвар
В главных ролях: Тина Танцер, Дэвид Йен Ли, Томас Роуэн, Даниэль Квизенберри, Кэтлин Кван, Мадука Стеди

Перевод: Профессиональное (многоголосый, закадровый) [лицензия]
Субтитры: Нет

О фильме: Землю атакует инопланетная цивилизация, во много раз превосходящая человечество в развитии. Обладая совершенными технологиями, инопланетяне стремительно захватывают города один за другим, превращая людей в своих рабов. Избежать промывания мозгов удается лишь маленькой горстке людей. И теперь им предстоит проникнуть в самый центр колонии захватчиков, чтобы отключить сигнал, превращающий людей в безропотных рабов…




Качество: HDRip
Продолжительность: 01:27:23 час
"Media Info" ▼C:UsersÍóðáåêDownloadsDen.2.Bitva.Za.NiyYork.2011.P.HDRip700.avi
General
Complete name : C:UsersÍóðáåêDownloadsDen.2.Bitva.Za.NiyYork.2011.P.HDRip700.avi
Format : AVI
Format/Info : Audio Video Interleave
File size : 700 MiB
Duration : 1h 30mn
Overall bit rate : 1 086 Kbps
Writing application : VirtualDubMod 1.5.10.2 (build 2540/release)
Writing library : VirtualDubMod build 2540/release
Video #0
ID : 0
Format : MPEG-4 Visual
Format profile : Advanced [email protected]
Format settings, BVOP : Yes
Format settings, QPel : No
Format settings, GMC : No warppoints
Format settings, Matrix : Default (MPEG)
Codec ID : XVID
Codec ID/Hint : XviD
Duration : 1h 30mn
Bit rate : 949 Kbps
Width : 688 pixels
Height : 288 pixels
Display aspect ratio : 2.35:1
Frame rate : 23.976 fps
Resolution : 8 bits
Colorimetry : 4:2:0
Scan type : Progressive
Bits/(Pixel*Frame) : 0.200
Stream size : 611 MiB (87%)
Writing library : XviD 1.2.1 (UTC 2008-12-04)
Audio #1
ID : 1
Format : MPEG Audio
Format version : Version 1
Format profile : Layer 3
Mode : Joint stereo
Codec ID : 55
Codec ID/Hint : MP3
Duration : 1h 30mn
Bit rate mode : Constant
Bit rate : 128 Kbps
Channel(s) : 2 channels
Sampling rate : 48.0 KHz
Stream size : 82.5 MiB (12%)
Alignment : Aligned on interleaves
Interleave, duration : 42 ms (1.00 video frame)
Interleave, preload duration : 504 ms
Writing library : LAME3.90.3
Формат: AVI
Видео кодек: XviD
Аудио кодек: MP3
Видео: 688x288,
a7bfcc7f0a7cddad19f3585048bd6b49b534b4e3День второй: Битва за Нью-Йорк / Battle: New York, Day 2 (Эндрю Беллвар, фантастика, 2011) [HDRip, Профессиональное (многоголосый, закадровый)] День второй: Битва за Нью-Йорк / Battle: New York, Day 2 (Эндрю Беллвар, фантастика, 2011) [HDRip, Профессиональное (многоголосый, закадровый)] " />

Аплоадер: Админ, дата: 19-07-2012, 02:10, торрент скачан: 359 раз

Понравилась раздача? Посмотрите эти:
  • Посылка / The Package (Джесси Джонсон, боевик, 2013) [HDRip, Профессиональн ...
  • Звук моего голоса / Sound of My Voice (Зал Батманглидж, триллер, драма, 201 ...
  • Заточка / Shank (Мо Али, фантастика, боевик, 2010) [HDRip, Многоголосый зак ...
  • Новые парни турбо / New Kids Turbo (Штефен Хаарс, Боевик, комедия, 2010) [H ...
  • Мутанты / Mimic (Гильермо дель Торо, ужасы, фантастика, 1997) [HDRip, Профе ...
  • Битва в пустыне / The Objective (Дэниэл Мирик, ужасы, фантастика, триллер, ...
  • Буря в Арктике / Arctic Blast (Брайан Тренчард-Смит, фантастика, триллер, 2 ...
  • Инопланетное вторжение: Битва за Лос-Анджелес / Battle: Los Angeles (Джонат ...
  • Неделя в NBA с В.Гомельским / НТВ+ [28.06.2011, SD, XviD, RU, SAT]
  • Вскрытие инопланетянина/Alien Autopsy (Джонни Кэмпбелл, Комедия, фантастика ...
  • Задание / The Task (Алекс Оруэлл, Ужасы, 2010) [HDRip, Профессиональный (мн ...
  • Мистер Ганджубас / Mr. Nice (Бернард Роуз, Драма, комедия, 2010)[HDRip, Про ...
  • Повторяющие реальность / Repeaters (Карл Бессай, фантастика, триллер, драма ...
  • Романтики / The Romantics (Галт Нидерхоффер, Драма, мелодрама, комедия, 201 ...
  • Полусвет / Half Light (Крэйг Розенберг, Ужасы, триллер, драма, детектив, 20 ...
  • Замёрзший мир / 2012: Ice Age (Трэвис Форт, фантастика, боевик, 2011) [HDRi ...
  • Мгновение любви / Here (Браден Кинг, Драма, мелодрама, приключения, 2011) [ ...
  • Искажение / Skew (Сейв Челенз, ужасы, триллер, 2011) [HDRip, Профессиональн ...
  • Короли рулетки / The Pelayos (Эдуард Кортес, боевик, драма, 2012) [HDRip, П ...
  • Ничего, кроме правды / Nothing But the Truth (Род Лури, триллер, драма, 200 ...
  • Информация
    Посетители, находящиеся в группе Гости, не могут оставлять комментарии к данной публикации.