вход на сайт

Имя пользователя :
Пароль :

Восстановление пароля Регистрация
Замёрзший мир / 2012: Ice Age (Трэвис Форт, фантастика, боевик, 2011) [HDRip, Профессиональный (многоголосый, закадровый)]
Рейтинг:
(голосов: 1)



[img]{THEME}/images/logopost.png[/img]



Замёрзший мир / 2012: Ice Age

Год выпуска: 2011
Страна: США
Выпущено: Global Asylum
Жанр: фантастика, боевик

Режиссёр: Трэвис Форт
В главных ролях: Патрик Лабьорто, Джули МакКалло, Ник Афанасьев, Кэти Уилсон, Кайл Моррис, Джералд Уэбб, Тед Монте, Джесси Дэйли, Шон Кори

Перевод: Профессиональный (многоголосый, закадровый) [Лицензия]
Субтитры: Нет

О фильме: То, чего мы так давно боялись, случилось! На Земле стремительно началось похолодание! Лед сковывает мировые океаны, а бесконечно падающий снег превращает огромные города в снежные равнины! Люди отчаянно пытаются избежать надвигающегося ледникового периода, но у них практически нет шанса выжить на ледяной планете…




Качество: HDRip
Продолжительность: 01:31:33 час
"Media Info" ▼C:UsersÍóðáåêDownloadsZamerzshiy.mir.2011.P.HDRip.avi
General
Complete name : C:UsersÍóðáåêDownloadsZamerzshiy.mir.2011.P.HDRip.avi
Format : AVI
Format/Info : Audio Video Interleave
File size : 710 MiB
Duration : 1h 31mn
Overall bit rate : 1 084 Kbps
Writing application : VirtualDubMod 1.5.4.1 (build 2178/release)
Writing library : VirtualDubMod build 2178/release
Video #0
ID : 0
Format : MPEG-4 Visual
Format profile : Advanced [email protected]
Format settings, BVOP : 1
Format settings, QPel : No
Format settings, GMC : No warppoints
Format settings, Matrix : Custom
Codec ID : XVID
Codec ID/Hint : XviD
Duration : 1h 31mn
Bit rate : 949 Kbps
Width : 640 pixels
Height : 352 pixels
Display aspect ratio : 16:9
Frame rate : 23.976 fps
Color space : YUV
Chroma subsampling : 4:2:0
Bit depth : 8 bits
Scan type : Progressive
Compression mode : Lossy
Bits/(Pixel*Frame) : 0.176
Stream size : 621 MiB (88%)
Writing library : XviD 58
Audio #1
ID : 1
Format : MPEG Audio
Format version : Version 1
Format profile : Layer 3
Mode : Joint stereo
Mode extension : MS Stereo
Codec ID : 55
Codec ID/Hint : MP3
Duration : 1h 31mn
Bit rate mode : Constant
Bit rate : 128 Kbps
Channel(s) : 2 channels
Sampling rate : 48.0 KHz
Compression mode : Lossy
Stream size : 83.8 MiB (12%)
Alignment : Aligned on interleaves
Interleave, duration : 83 ms (2.00 video frames)
Interleave, p
c9983559827ab48dba120ee2949cde50d0029b00Замёрзший мир / 2012: Ice Age (Трэвис Форт, фантастика, боевик, 2011) [HDRip, Профессиональный (многоголосый, закадровый)] Замёрзший мир / 2012: Ice Age (Трэвис Форт, фантастика, боевик, 2011) [HDRip, Профессиональный (многоголосый, закадровый)] " />

Аплоадер: Админ, дата: 1-07-2012, 15:47, торрент скачан: 359 раз

Понравилась раздача? Посмотрите эти:
  • Погнали! / Getaway (Кортни Соломон, Боевик, Криминал, 2013) [HDRip, Професс ...
  • Погнали! / Getaway (Кортни Соломон, Боевик,Криминал, 2013) [HDRip, Професси ...
  • Верное дельце / Une pure affaire (Александр Коффре, Боевик, Комедия, Кримин ...
  • Посылка / The Package (Джесси Джонсон, боевик, 2013) [HDRip, Профессиональн ...
  • Посылка / The Package (Джесси Джонсон, боевик, 2013) [HDRip, Профессиональн ...
  • Ночь тамплиера / Night of the Templar (Пол Сэмпсон, Ужасы, фантастика, боев ...
  • 12 раундов: Перезагрузка / 12 Rounds: Reloaded (Роэль Рейн, Боевик, 2013) [ ...
  • Безопасность не гарантируется / Safety Not Guaranteed (Колин Треворроу, фан ...
  • Неуловимые / Red Dawn (Дэн Брэдли, боевик, 2012) [HDRip, Профессиональный ( ...
  • Заточка / Shank (Мо Али, фантастика, боевик, 2010) [HDRip, Многоголосый зак ...
  • Новые парни турбо / New Kids Turbo (Штефен Хаарс, Боевик, комедия, 2010) [H ...
  • Буря в Арктике / Arctic Blast (Брайан Тренчард-Смит, фантастика, триллер, 2 ...
  • Холодная смесь / Cold Fusion (Иван Митов, боевик, 2010) [HDRip, Профессиона ...
  • Неделя в NBA с В.Гомельским / НТВ+ [28.06.2011, SD, XviD, RU, SAT]
  • Вскрытие инопланетянина/Alien Autopsy (Джонни Кэмпбелл, Комедия, фантастика ...
  • Орден Дракона / Dragon Crusaders (Марк Аткинс, Ниа Энн, Боевик, 2011) [HDRi ...
  • Замёрзший мир / 2012: Ice Age (Трэвис Форт, фантастика, боевик, 2011) [HDRi ...
  • Романтики / The Romantics (Галт Нидерхоффер, Драма, мелодрама, комедия, 201 ...
  • Супершторм в Сиэтле / Seattle Superstorm (Джейсон Бурк, фантастика, боевик ...
  • День второй: Битва за Нью-Йорк / Battle: New York, Day 2 (Эндрю Беллвар, фа ...
  • Девушки в опасности / Damsels in Distress (Уит Стиллман, драма, мелодрама, ...
  • Присутствие великолепия / Magnifica presenza (Ферзан Озпетек, драма, 2012) ...
  • Глаз шторма / The Eye of the Storm (Фред Скеписи, Драма, 2011) [HDRip, Проф ...
  • Искажение / Skew (Сейв Челенз, ужасы, триллер, 2011) [HDRip, Профессиональн ...
  • Паучий удар / Arachnoquake (Грифф Ферст, фантастика,2012) [HDRip, Профессио ...
  • Информация
    Посетители, находящиеся в группе Гости, не могут оставлять комментарии к данной публикации.