вход на сайт

Имя пользователя :
Пароль :

Восстановление пароля Регистрация
Временная петля / Los cronocrímenes (Начо Вигалондо, фантастика, боевик, триллер, драма, приключения, 2007) [BDRip, Профессиональный (двухголосый, закадровый)]
Рейтинг:
(голосов: 1)



[img]{THEME}/images/logopost.png[/img]



Временная петля / Los cronocrímenes
«Настоящее может изменить прошлое.»

Год выпуска: 2007
Страна: Испания
Производство: Karbo Vantas Entertainment / Fine Productions
Жанр: фантастика, триллер, драма, детектив

Режиссёр: Начо Вигалондо
В ролях: Карра Элехальде, Кандела Фернандез, Начо Вигалондо, Барбара Гоэнага, Джуан Инкиарте

Перевод: Профессиональный (двухголосый, закадровый) НТВ+
Субтитры: Отсутствуют

Описание: Гектор — самый обычный человек, вполне довольный своей жизнью: любящая жена, дом за городом. В один из вечеров внимание Гектора привлекает мелькнувшая в лесу полуобнаженная девушка и движимый любопытством, мужчина отправляется разведать, что же там такое происходит. В лесу он сталкивается с человеком, чье лицо скрыто окровавленными бинтами. Скрываясь от преследования незнакомца, Гектор случайно попадает в машину времени…



Релиз от:
Автор рипа: Last Boy Scout

Качество: BDRip (Исходник: BDRemux 1080p)
Продолжительность: 01:32:14 час.

Формат: AVI
Видео кодек: XviD
Аудио кодек: AC3
Видео: 720x384 (1.88:1), 23.976 fps, XviD build 65 ~2056 kbps avg, 0.31 bit/pixel
Аудио: 48 kHz, AC3 Dolby Digital, 2/0 (L,R) ch, ~192 kbps | Russian (DVO)

Премьера (мир): 20 сентября 2007
Mediainfo ▼General
Complete name : /Torrents/home/borodach/data/Los.cronocrimenes.2007.BDRip.NTV+.ALLFILMS.RG.avi
Format : AVI
Format/Info : Audio Video Interleave
File size : 1.45 GiB
Duration : 1h 32mn
Overall bit rate : 2 258 Kbps
Director : Last Boy Scout
Writing application : VirtualDubMod 1.5.10.3 | www.virtualdub-fr.org || (build 2550/release)
Copyright : rutracker.org 05.05.2012

Video
ID : 0
Format : MPEG-4 Visual
Format profile : Advanced [email protected]
Format settings, BVOP : 1
Format settings, QPel : No
Format settings, GMC : No warppoints
Format settings, Matrix : Custom
Codec ID : XVID
Codec ID/Hint : XviD
Duration : 1h 32mn
Bit rate : 2 057 Kbps
Width : 720 pixels
Height : 384 pixels
Display aspect ratio : 1.875
Frame rate : 23.976 fps
Color space : YUV
Chroma subsampling : 4:2:0
Bit depth : 8 bits
Scan type : Progressive
Compression mode : Lossy
Bits/(Pixel*Frame) : 0.310
Stream size : 1.32 GiB (91%)
Writing library : XviD 65

Audio
ID : 1
Format : AC-3
Format/Info : Audio Coding 3
Mode extension : CM (complete main)
Codec ID : 2000
Duration : 1h 32mn
Bit rate mode : Constant
Bit rate : 192 Kbps
Channel(s) : 2 channels
Channel positions : Front: L R
Sampling rate : 48.0 KHz
Bit depth : 16 bits
Compression mode : Lossy
Stream size : 127 MiB (9%)
Alignment : Split accross interleaves
Interleave, duration : 42 ms (1.00 video frame)
Interleave, preload duration : 500 ms


585ae303fe4275a09560491fc64f73fa74bb13f1Временная петля / Los cronocrímenes (Начо Вигалондо, фантастика, боевик, триллер, драма, приключения, 2007) [BDRip, Профессиональный (двухголосый, закадровый)] Временная петля / Los cronocrímenes (Начо Вигалондо, фантастика, боевик, триллер, драма, приключения, 2007) [BDRip, Профессиональный (двухголосый, закадровый)] " />

Аплоадер: Админ, дата: 6-05-2012, 13:42, торрент скачан: 359 раз

Понравилась раздача? Посмотрите эти:
  • Вирус / Flu (Ким Сон Су, Драма, 2013) [HDTVRip, Любительский (двухголосый з ...
  • Парни что надо / The Right Stuff (Филип Кауфман, Фантастика, драма, приключ ...
  • Орудие смерти / A-i-deul... (Ли Гю Ман, Триллер, криминал, 2011) [DVDRip, П ...
  • Короткометражка Marvel: Агент Картер / Marvel One-Shot: Agent Carter (Луис ...
  • Безумный Макс 3: Под куполом грома / Mad Max Beyond Thunderdome (Джордж Мил ...
  • Мужество / Wymyk (Грег Зглински, драма, 2011) [DVDRip, Любительский (одного ...
  • 42 / 42 (Брайан Хелгеленд, драма, биография, спорт, 2013) [BDRip, Профессио ...
  • Ночь тамплиера / Night of the Templar (Пол Сэмпсон, Ужасы, фантастика, боев ...
  • Колония / The Colony (Джефф Ренфро, фантастика, боевик, триллер, 2013) [DVD ...
  • Колония / The Colony (Джефф Ренфро, фантастика, боевик, триллер, 2013) [DVD ...
  • Слепой поворот / Blind Turn (Роберт Орр, Триллер, драма, детектив, 2012) [W ...
  • Временная петля / Los cronocrímenes (Начо Вигалондо, фантастика, триллер, д ...
  • Псы войны / The Dogs of War (Джон Ирвин, боевик, драма, приключения, военны ...
  • Остановка 2: Не оглядывайся назад / Rest Stop: Dont Look Back (Шоун Папазян ...
  • Захват / Carjacked (Джон Бонито, триллер, 2011)[BDRip, Профессиональный (мн ...
  • Последняя искра жизни / La chispa de la vida (Алекс де ла Иглесиа, Драма, 2 ...
  • Война динозавров / D-War (Хен Рэ Сим / Hyung-rae Shim, фэнтези, ужасы, боев ...
  • Преступления в другом времени (Временная петля) / Los cronocrímenes (Начо В ...
  • Последний отпуск / Last Holiday (Уэйн Ван, Драма, комедия, приключения, 200 ...
  • Трус / Faintheart (Вито Рокко, Комедия, 2008) [BDRip, Профессиональный (дву ...
  • Человек-Мираж / Mirageman (Эрнесто Диаз Эспиноза, Комедия, боевик, криминал ...
  • Супершторм в Сиэтле / Seattle Superstorm (Джейсон Бурк, фантастика, боевик ...
  • Пришелец из космоса / Extraterrestre (Начо Вигалондо, Фантастика, драма, ко ...
  • Пришелец из космоса / Extraterrestre (Начо Вигалондо, Фантастика, драма, ко ...
  • Петля времени / Looper (Райан Джонсон, фантастика, боевик, триллер, 2012) [ ...
  • Информация
    Посетители, находящиеся в группе Гости, не могут оставлять комментарии к данной публикации.