вход на сайт

Имя пользователя :
Пароль :

Восстановление пароля Регистрация
Часто задаваемые вопросы о путешествиях во времени / Frequently Asked Questions About Time Travel (Гарет Карривик, фантастика, комедия, 2009) [HDTVRip, Профессиональный (двухголосый закадровый)] by Torrent Club
Рейтинг:
(голосов: 1)



[img]{THEME}/images/logopost.png[/img]



Часто задаваемые вопросы о путешествиях во времени / Frequently Asked Questions About Time Travel

Слоган "Three guys. One pub. Too much time on their hands"

Год выпуска: 2009
Страна: Великобритания
Производство: BBC Films, Dog Lamp Films, HBO Films
Жанр: фантастика, комедия

Режиссёр: Гарет Карривик
В ролях: Криc О`Дауд, Марк Вуттон, Дин Леннокс Келли, Анна Фэрис, Мередит МакНейл, Рэй Гарднер, Ник Ивэнс, Артур Найтингейл, Paul Adams, Дарио Аттанасио

Перевод: Профессиональный (двухголосый закадровый)
Озвучка: Студия NLS
Субтитры: отсутствуют

Описание:
Трое друзей выпивают пиво в пабе. Рэй, один из них, знакомится с девушкой, которая утверждает, что является путешественницей во времени, и восторгается свершениями Рэя, которые он должен сотворить в будущем. Рэй считает это хитрым розыгрышем и рассказывает о встрече своим друзьям.

В реальность истории им приходится поверить только после того, как, посетив мужской туалет, они выходят в ином времени. Они перемещаются во время недалекого прошлого, в момент, когда они только пришли в паб, затем посещают далёкое постапокалиптическое будущее, когда весь мир оказывается разрушен и испепелён, а по улицам ходят огромные насекомые. В будущем видят рисунки самих себя, сидящих за столом паба, попадают на вечеринку в свою честь и оказываются лицом к лицу с убийцей из будущего.



Доп. информация:

Релиз от :
Премьера: ▼премьера (мир) 16 февраля 2009

Тех. данные:
Качество: HDTVRip
Продолжительность: 01:22:40 час.

Формат: AVI
Видео кодек: XviD
Аудио кодек: MP3
Видео: 688x384 (1.79:1), 23.976 fps, XviD build 50 ~1119 kbps avg, 0.18 bit/pixel
Аудио: 48 kHz, MPEG Layer 3, 2 ch, ~128.00 kbps avg
"MediaInfo" ▼TextОбщее
Полное имя : C:UsersШапагатDownloadsF.A.Q.About.Time.Travel.HDTVRip.by.TORRENT-CLUB.avi
Формат : AVI
Формат/Информация : Audio Video Interleave
Размер файла : 743 Мбайт
Продолжительность : 1 ч. 22 м.
Общий поток : 1257 Кбит/сек
Режиссёр : Rip by Torrent Club / Simple_guy
Программа кодирования : VirtualDubMod 1.5.10.3 | www.virtualdub-fr.org || (build 2550/release)

Видео
Идентификатор : 0
Формат : MPEG-4 Visual
Профиль формата : Advanced [email protected]
Параметр BVOP формата : 2
Параметр QPel формата : Нет
Параметр GMC формата : Без точки перехода
Параметр матрицы формата : Default (H.263)
Идентификатор кодека : XVID
Идентификатор кодека/Подсказка : XviD
Продолжительность : 1 ч. 22 м.
Битрейт : 1120 Кбит/сек
Ширина : 688 пикс.
Высота : 384 пикс.
Соотношение сторон : 16:9
Частота кадров : 23,976 кадр/сек
Цветовое пространство : YUV
Подвыборка цветности : 4:2:0
Битовая глубина : 8 бит
Тип развёртки : Прогрессивная
Метод сжатия : С потерями
Бит/(Пиксели*Кадры) : 0.177
Размер потока : 662 Мбайт (89%)
Библиотека кодирования : XviD 1.2.1 (UTC 2008-12-04)

Аудио
Идентификатор : 1
Формат : MPEG Audio
Версия формата : Version 1
Профиль формата : Layer 3
Режим : Joint stereo
Расширение режима : MS Stereo
Идентификатор кодека : 55
Идентификатор кодека/Подсказка : MP3
Продолжительность : 1 ч. 22 м.
Вид битрейта : Постоянный
Битрейт : 128 Кбит/сек
Каналы : 2 канала
Частота : 48,0 КГц
Метод сжатия : С потерями
Размер потока : 75,7 Мбайт (10%)
Выравнивание : Соединение по промежуткам
Продолжительность промежутка : 42 мс. (1,00 видеокадр)
Время предзагрузки промежутка : 504 ms
Библиотека кодирования : LAME3.98r
Настройки программы : -m j -V 4 -q 2 -lowpass 17 -b 128



Раздача группы: Наши раздачи
Набор в группу




edaf63e5c3318f9826828dcc56377d46fbe15cfaЧасто задаваемые вопросы о путешествиях во времени / Frequently Asked Questions About Time Travel (Гарет Карривик, фантастика, комедия, 2009) [HDTVRip, Профессиональный (двухголосый закадровый)] by Torrent Club Часто задаваемые вопросы о путешествиях во времени / Frequently Asked Questions About Time Travel (Гарет Карривик, фантастика, комедия, 2009) [HDTVRip, Профессиональный (двухголосый закадровый)] by Torrent Club " />

Аплоадер: Админ, дата: 14-07-2011, 13:27, торрент скачан: 359 раз

Понравилась раздача? Посмотрите эти:
  • Бойфренд из будущего / About Time (Ричард Кёртис, Фантастика, драма, комеди ...
  • Миллионы Брюстера / Brewsters Millions (Уолтер Хилл, Комедия, 1985) [HDTVRi ...
  • Плохой хороший полицейский / Bon Cop, Bad Cop (Эрик Кануэль, боевик, трилле ...
  • Часто задаваемые вопросы о путешествиях во времени / Frequently Asked Quest ...
  • Двенадцать бедствий на Рождество / The 12 Disasters of Christmas (Стивен Р. ...
  • Злые птицы: Хэллоуин / Angry Birds: HamOWeen (Джей Ройвайнен, Мультфильм, к ...
  • Часто задаваемые вопросы о путешествиях во времени / Frequently Asked Quest ...
  • Бог любви / God of Love (Люк Мэзени, Короткометражка, фэнтези, комедия, мел ...
  • Любовь по расписанию / Поезд (Сергей Мезенцев, мелодрама, 2012) [HDTVRip, Н ...
  • Вечерний Ургант // Сезон 2. Выпуск 63 (ТВ-шоу, 20.12.2012) [SATRip, Не треб ...
  • Кейси Джонс / Casey Jones (Иларион Бэнкс, Короткометражка, фэнтези, боевик, ...
  • Заместитель / Il supplente (Андреа Жублин, Короткометражка, комедия, 2007) ...
  • Вечерний Ургант // Сезон 2. Выпуск 66 (ТВ-шоу, 25.12.2012) [SATRip, Не треб ...
  • Дорога на... / Road to (Таисия Игуменцева, Комедия, короткометражный, 2011) ...
  • Покорить высоту / Take It to the Limit (Сэм Кит / Sam Kieth, семейный, 2000 ...
  • Светлячок. Воссоединение Коричневых плащей к 10 годовщине / Firefly 10th An ...
  • А что насчет тебя? / How About You (Энтони Бирн, Драма, комедия, 2007) [DVD ...
  • Часто задаваемые вопросы о путешествиях во времени / Frequently Asked Quest ...
  • Детский душ / Baby Shower (Pablo Illanes, Ужасы, 2011) [DVDRip, Любительски ...
  • Дикая штучка / Wild Target (Джонатан Линн, боевик, драма, комедия, криминал ...
  • Привет, Джули! / Flipped (Роб Райнер, драма, мелодрама, комедия , 2010) [HD ...
  • Часто задаваемые вопросы о путешествиях во времени / Frequently Asked Quest ...
  • В лесу / The Forest (Шан Серафин, ужасы, триллер , 2011) [SATRip, Профессио ...
  • Пожирая живых / Ночь зомби / Zombie Night (Дэвид Дж. Фрэнсис, Ужасы, комеди ...
  • Бюро находок : Потерянный и найденный / Lost and Found (Филип Хант, коротко ...
  • Информация
    Посетители, находящиеся в группе Гости, не могут оставлять комментарии к данной публикации.