вход на сайт

Имя пользователя :
Пароль :

Восстановление пароля Регистрация
В поисках древней гробницы / Das Jesus Video (Себастьян Нимэнн, фантастика, боевик, триллер, фэнтези, детектив, 2002) [DVDRip, Многоголосый закадровый]
Рейтинг:
(голосов: 1)



[img]{THEME}/images/logopost.png[/img]



В поисках древней гробницы (Охотники за реликвией) / Das Jesus Video

Год выпуска: 2002
Страна: Германия
Жанр: Фантастика, боевик, триллер, фэнтези, детектив

Режиссёр: Себастьян Нимэнн
В ролях: Маттиас Кеберлин /Matthias Koeberlin/, Найке Ривелли /Naike Rivelli/, Фрэнк Шарл /Frank Scharl/, Ханс Диль /Hans Diehl/, Хайнрих Гискес /Heinrich Giskes/, Робинсон Райхель /Robinson Reichel

Перевод: Профессиональный (многоголосый закадровый)
Cубтитры: Русские

Описание: Во время раскопок близ Иерусалима молодой археолог Штеффен обнаруживает гробницу двухтысячелетней давности. А в ней — такой же древний скелет, сжимающий в руке инструкцию к суперсовременной видеокамере, еще не поступавшей на рынок, и листок с именем Иисус.

Штеффен предполагает, что нашел останки путешественника во времени, посетившего древнюю Палестину, а камера могла запечатлеть облик Христа. Сенсационная находка, угрожающая основам мировых религий, становится причиной ожесточенной схватки между могущественными силами.

А в руках Штеффена — зашифрованная инструкция, как найти видеокамеру. Преследуемый со всех сторон, он надеется найти разгадку этой невероятной тайны, укрывшись в древнем монастыре в пустыне Негев, где, по легенде, находится «священное зеркало» с обликом Иисуса…

IMDB рейтинг: 5.3/10 (893)
КиноПоиск рейтинг: 7.5/10 (246)


Качество: DVDRip
Продолжительность: 03:12:42 час.

Формат: AVI
Видео кодек: DivX
Аудио кодек: AC3
Видео: 720x400 (1.80:1), 25 fps, XviD build 50 ~1339 kbps avg, 0.19 bit/pixel
Аудио #1: 48 kHz, AC3 Dolby Digital, 3/2 (L,C,R,l,r) + LFE ch, ~384 kbps Русский
Аудио #2: 48 kHz, AC3 Dolby Digital, 3/2 (L,C,R,l,r) + LFE ch, ~384 kbps Немецкий

MediaInfo ▼
General
Complete name : J:Ohotniki za relikviey.chopper887.avi
Format : AVI
Format/Info : Audio Video Interleave
File size : 2.86 GiB
Duration : 3h 12mn
Overall bit rate : 2 123 Kbps
Writing application : VirtualDubMod 1.5.10.2 (build 2540/release)
Writing library : VirtualDubMod build 2540/release
Video
ID : 0
Format : MPEG-4 Visual
Format profile : [email protected]
Format settings, BVOP : Yes
Format settings, QPel : No
Format settings, GMC : No warppoints
Format settings, Matrix : Custom
Codec ID : XVID
Codec ID/Hint : XviD
Duration : 3h 12mn
Bit rate : 1 340 Kbps
Width : 720 pixels
Height : 400 pixels
Display aspect ratio : 16:9
Frame rate : 25.000 fps
Resolution : 24 bits
Colorimetry : 4:2:0
Scan type : Progressive
Bits/(Pixel*Frame) : 0.186
Stream size : 1.80 GiB (63%)
Writing library : XviD 1.2.1 (UTC 2008-12-04)
Audio #1
ID : 1
Format : AC-3
Format/Info : Audio Coding 3
Codec ID : 2000
Duration : 3h 12mn
Bit rate mode : Constant
Bit rate : 384 Kbps
Channel(s) : 6 channels
Channel positions : Front: L C R, Surround: L R, LFE
Sampling rate : 48.0 KHz
Stream size : 529 MiB (18%)
Alignment : Split accross interleaves
Interleave, duration : 40 ms (1.00 video frame)
Interleave, preload duration : 500 ms
Audio #2
ID : 2
Format : AC-3
Format/Info : Audio Coding 3
Codec ID : 2000
Duration : 3h 12mn
Bit rate mode : Constant
Bit rate : 384 Kbps
Channel(s) : 6 channels
Channel positions : Front: L C R, Surround: L R, LFE
Sampling rate : 48.0 KHz
Stream size : 529 MiB (18%)
Alignment : Split accross interleaves
Interleave, duration : 40 ms (1.00 video frame)
Interleave, preload duration : 500 ms



c12bd35a2ea0989b8c89a55f49621e61b6e2979aВ поисках древней гробницы / Das Jesus Video (Себастьян Нимэнн, фантастика, боевик, триллер, фэнтези, детектив, 2002) [DVDRip, Многоголосый закадровый] В поисках древней гробницы / Das Jesus Video (Себастьян Нимэнн, фантастика, боевик, триллер, фэнтези, детектив, 2002) [DVDRip, Многоголосый закадровый] " />

Аплоадер: Админ, дата: 25-11-2010, 14:24, торрент скачан: 359 раз

Понравилась раздача? Посмотрите эти:
  • Погнали! / Getaway (Кортни Соломон, Боевик, Криминал, 2013) [HDRip, Професс ...
  • Орудие смерти / A-i-deul... (Ли Гю Ман, Триллер, криминал, 2011) [DVDRip, П ...
  • Верное дельце / Une pure affaire (Александр Коффре, Боевик, Комедия, Кримин ...
  • Номад: Начало / Nomad the Beginning (Томас Диксон, фантастика, боевик, 2013 ...
  • Мэрайа Мунди и шкатулка Мидаса / The Adventurer: The Curse of the Midas Box ...
  • Мужество / Wymyk (Грег Зглински, драма, 2011) [DVDRip, Любительский (одного ...
  • 42 / 42 (Брайан Хелгеленд, драма, биография, спорт, 2013) [BDRip, Профессио ...
  • Ночь тамплиера / Night of the Templar (Пол Сэмпсон, Ужасы, фантастика, боев ...
  • Звук моего голоса / Sound of My Voice (Зал Батманглидж, триллер, драма, 201 ...
  • Колония / The Colony (Джефф Ренфро, фантастика, боевик, триллер, 2013) [DVD ...
  • Слепой поворот / Blind Turn (Роберт Орр, Триллер, драма, детектив, 2012) [W ...
  • 23:59 / 23:59 (Гилберт Чан, Ужасы, 2011) [HDRip, Любительский (одноголосый ...
  • Безопасность не гарантируется / Safety Not Guaranteed (Колин Треворроу, фан ...
  • Псы войны / The Dogs of War (Джон Ирвин, боевик, драма, приключения, военны ...
  • Воин / The One Warrior (Том Стаут, фантастика, 2011) [DVDRip,Оригинал,Профе ...
  • Плохая актриса / Bad Actress (Роберт Ли Кинг, комедия, 2011) [DVDRip, Профе ...
  • Любит - не любит... / Homecoming (Морган Дж. Фриман, триллер, 2009) [DVDRip ...
  • Супер циклон / Super Cyclone (Лиз Адамс / Liz Adams, боевик, 2012) [HDRip, ...
  • Захват / Carjacked (Джон Бонито, триллер, 2011)[BDRip, Профессиональный (мн ...
  • Битва в пустыне / The Objective (Дэниэл Мирик, ужасы, фантастика, триллер, ...
  • Джентльмен в коричневом / The Man in the Brown Suit (Алан Гринт, детектив, ...
  • Похищение / Rapt / Lösegeld (Люка Бельво, триллер, 2009) [HDRip, профессион ...
  • Супершторм в Сиэтле / Seattle Superstorm (Джейсон Бурк, фантастика, боевик ...
  • Инкубус / Inkubus (Гленн Чиано, Ужасы, 2011) [DVDRip, Профессиональный (мно ...
  • Искажение / Skew (Сейв Челенз, ужасы, триллер, 2011) [HDRip, Профессиональн ...
  • Информация
    Посетители, находящиеся в группе Гости, не могут оставлять комментарии к данной публикации.