вход на сайт

Имя пользователя :
Пароль :

Восстановление пароля Регистрация
Люди Икс: Начало. Росомаха / X-Men Origins: Wolverine (Гэвин Худ, фантастика, боевик, триллер, фэнтези ,2009 г.,) [DVDRip, Профессиональный (полное дублирование)]
Рейтинг:
(голосов: 1)



[img]{THEME}/images/logopost.png[/img]



Люди Икс: Начало. Росомаха / X-Men Origins: Wolverine

«Узнай, с чего начиналась легенда»


Страна: США
Выпущено: Marvel Enterprises,Twentieth Century Fox Film Corporation
Год выхода: 2009
Жанр: фантастика, боевик, триллер, фэнтези

Режиссер Гэвин Худ
В ролях: Хью Джекман, Райан Рейнольдс, Лив Шрайбер, Доминик Монахэн, Линн Коллинз, Дэнни Хьюстон, Дэниэл Хенни, Тейлор Китч, Кевин Дюран, Скотт Эдкинс


Перевод: Профессиональный (полное дублирование)

Фильм рассказывает о неистовом и романтичном прошлом Росомахи, его сложных отношениях с Виктором Кридом и о зловещей программе Оружие Х. При этом Росомаха встречается со многими мутантами, уже знакомыми и новыми, и узнает несколько легенд о мире Людей Икс.


рейтинг 6.80 (37 372)
рейтинг 7.767 (7531)





Качество: DVDRip
Продолжительность: 01:42:59

Формат:AVI
Видео кодек: XVID
Аудио кодек: MP3
Свойства видео: 624x256(2.4375/1),MPEG-4 Visual, 25.000 fps, 0.206 bit/pixel, 822 Кбит/сек.
Свойства аудио: MP3, MPEG Audio, 2 канала(ов)(L,R), 112 kbps(constant), 48,0 КГц.
"MediaInfo" ▼D:NurZverÔèëüìû è ìóëüòèêèËþäèÈêñ Ðàññîìàõà.avi
General
Complete name : D:NurZverÔèëüìû è ìóëüòèêèËþäèÈêñ Ðàññîìàõà.avi
Format : AVI
Format/Info : Audio Video Interleave
File size : 696 MiB
Duration : 1h 42mn
Overall bit rate : 944 Kbps
Writing application : VirtualDubMod 1.5.4.1 (build 2178/release)
Writing library : VirtualDubMod build 2178/release
Video #0
ID : 0
Format : MPEG-4 Visual
Format profile : Advanced [email protected]
Format settings, BVOP : Yes
Format settings, QPel : No
Format settings, GMC : No warppoints
Format settings, Matrix : Default (H.263)
Codec ID : XVID
Codec ID/Hint : XviD
Duration : 1h 42mn
Bit rate : 822 Kbps
Width : 624 pixels
Height : 256 pixels
Display aspect ratio : 2.40:1
Frame rate : 25.000 fps
Color space : YUV
Chroma subsampling : 4:2:0
Bit depth : 8 bits
Scan type : Progressive
Bits/(Pixel*Frame) : 0.206
Stream size : 606 MiB (87%)
Writing library : XviD 1.2.1 (UTC 2008-12-04)
Audio #1
ID : 1
Format : MPEG Audio
Format version : Version 1
Format profile : Layer 3
Codec ID : 55
Codec ID/Hint : MP3
Duration : 1h 42mn
Bit rate mode : Constant
Bit rate : 112 Kbps
Channel(s) : 2 channels
Sampling rate : 48.0 KHz
Stream size : 82.5 MiB (12%)
Alignment : Split accross interleaves
&n
7a3a2c39a7c2039536d042ccfbf1976c71f7ffeeЛюди Икс: Начало. Росомаха / X-Men Origins: Wolverine (Гэвин Худ, фантастика, боевик, триллер, фэнтези ,2009 г.,) [DVDRip, Профессиональный (полное дублирование)] Люди Икс: Начало. Росомаха / X-Men Origins: Wolverine (Гэвин Худ, фантастика, боевик, триллер, фэнтези ,2009 г.,) [DVDRip, Профессиональный (полное дублирование)] " />

Аплоадер: Админ, дата: 12-11-2010, 15:26, торрент скачан: 359 раз

Понравилась раздача? Посмотрите эти:
  • Росомаха: Бессмертный / The Wolverine (Джеймс Мэнголд, фантастика, фэнтези, ...
  • Росомаха: Бессмертный / The Wolverine [EXTENDED] (Джеймс Мэнголд, фантастик ...
  • Росомаха: Бессмертный / The Wolverine [Theatrical Cut] (Джеймс Мэнголд, фан ...
  • Росомаха: Бессмертный / The Wolverine [Theatrical Cut] (Джеймс Мэнголд, Фан ...
  • Росомаха: Бессмертный / The Wolverine [Extended] (Джеймс Мэнголд, Фантастик ...
  • Росомаха: Бессмертный / The Wolverine [Theatrical Cut] (Джеймс Мэнголд, фан ...
  • Росомаха: Бессмертный / The Wolverine [Theatrical Cut] (Джеймс Мэнголд, Фан ...
  • Росомаха: Бессмертный / The Wolverine [Расширенная версия / Extended Cut] ( ...
  • Росомаха: Бессмертный / The Wolverine [Extended cut] (Джеймс Мэнголд, фанта ...
  • Росомаха: Бессмертный / The Wolverine [Theatrical Cut] (Джеймс Мэнголд, фан ...
  • Росомаха: Бессмертный / The Wolverine [Theatrical Cut] (Джеймс Мэнголд, фан ...
  • Росомаха: Бессмертный / The Wolverine [Theatrical Cut] (Джеймс Мэнголд, фан ...
  • Росомаха: Бессмертный / The Wolverine [Theatrical Cut] (Джеймс Мэнголд, Фан ...
  • [Трейлер №3] Росомаха: Бессмертный / The Wolverine (Джеймс Мэнголд, фантаст ...
  • Люди Икс: Начало. Росомаха / X-Men Origins: Wolverine (Гэвин Худ, фантастик ...
  • Люди Икс: Начало. Росомаха / X-Men Origins: Wolverine (Гэвин Худ, фантастик ...
  • Люди Икс: Начало. Росомаха / X-Men Origins: Wolverine (Гэвин Худ, фантастик ...
  • Люди Икс Начало. Росомаха / X-Men Origins. Wolverine (1С-СофтКлаб/2011/Rus) ...
  • Люди Икс: Начало. Росомаха / X-Men Origins: Wolverine (Гэвин Худ) [220x144] ...
  • Люди Икс: Начало. Росомаха / X-Men Origins: Wolverine (Гэвин Худ, фантастик ...
  • Люди Икс: Начало Росомаха / X Men Origins: Wolverine (Гевин Гуд, 2009, фант ...
  • Люди Икс: Начало. Росомаха / X-Men Origins: Wolverine (Гэвин Худ, Фантастик ...
  • Люди Икс: Начало. Росомаха / X-Men Origins: Wolverine (Гэвин Худ, фантастик ...
  • Люди Икс: Начало. Россомаха / X-Men Origins: Wolverine (Гэвин Худ, фантасти ...
  • Люди Икс: Начало. Росомаха / X-Men Origins: Wolverine (Гэвин Худ, фантастик ...
  • Информация
    Посетители, находящиеся в группе Гости, не могут оставлять комментарии к данной публикации.