вход на сайт

Имя пользователя :
Пароль :

Восстановление пароля Регистрация
Кейси Джонс / Casey Jones (Иларион Бэнкс, Короткометражка, фэнтези, боевик, приключения, 2011) [DVDRip, Профессиональный (многоголосый) + Оригинал]
Рейтинг:
(голосов: 1)



[img]{THEME}/images/logopost.png[/img]



♠ Кейси Джонс / Casey Jones ♠
« Защитник граждан в хоккейной маске »


♠Год выпуска: 2011
♠Страна: США
♠Производство: SkyeFilmTv
♠Жанр: Короткометражка, фэнтези, боевик, приключения

♠Режиссёр: Иларион Бэнкс
♠В ролях: Поларис Бэнкс, Иларион Бэнкс, Мойра Уилсон, Браян Виллалобос, Саввина Уэлч и другие.
♠Перевод: Профессиональный (многоголосый) + Оригинал
♠Субтитры: Отсутствуют

♠Описание ▼ После неудачной тренировки завершившейся дракой игрока по имени Арнольд выгоняют из хоккейной команды. В обиде на всех он отправляется в дом, в котором он родился и где живет его мама. Вечером, пытаясь отмыть со стен странные символы с изображением «Пурпурного дракона», на него нападает банда и сильно избивает. Разозлившись на всех он начинает тренироваться, чтобы отомстить и навести порядок на улицах. И теперь он Кейси Джонс — защитник граждан в хоккейной маске.


♠Рейтинг:♠Качество: DVDRip
♠Продолжительность: 00:35:19 час.

♠Формат: AVI
♠Видео кодек: XviD
♠Аудио кодек: MPEG-3
♠Видео: XviD build 50. 640x360, 23.976 fps, 1708 kbps avg, 0.31 bit/pixel
♠Аудио #1: MPEG Layer 3. 48 kHz, 2 ch, 128.00 kbps avg
♠Аудио #2: MPEG Layer 3. 48 kHz, 2 ch, 128.00 kbps avg

♠Премьера(мир): 18 сентября 2011

MediaInfo ▼
Text
Общее
Полное имя : D:casey_jones.avi
Формат : AVI
Формат/Информация : Audio Video Interleave
Размер файла : 500 Мбайт
Продолжительность : 35 м.
Общий поток : 1979 Кбит/сек
Программа кодирования : VirtualDubMod 1.5.10.2 (build 2540/release)
Библиотека кодирования : VirtualDubMod build 2540/release

Видео
Идентификатор : 0
Формат : MPEG-4 Visual
Профиль формата : Advanced [email protected]
Параметр BVOP формата : 1
Параметр QPel формата : Нет
Параметр GMC формата : Без точки перехода
Параметр матрицы формата : Default (MPEG)
Идентификатор кодека : XVID
Идентификатор кодека/Подсказка : XviD
Продолжительность : 35 м.
Битрейт : 1709 Кбит/сек
Ширина : 640 пикселей
Высота : 360 пикселей
Соотношение сторон : 16:9
Частота кадров : 23,976 кадра/сек
Цветовое пространство : YUV
Субдискретизация насыщенности : 4:2:0
Битовая глубина : 8 бит
Тип развёртки : Прогрессивная
Метод сжатия : С потерями
Бит/(Пиксели*Кадры) : 0.309
Размер потока : 432 Мбайт (86%)
Библиотека кодирования : XviD 1.2.1 (UTC 2008-12-04)

Аудио #1
Идентификатор : 1
Формат : MPEG Audio
Версия формата : Version 1
Профиль формата : Layer 3
Режим : Joint stereo
Расширение режима : MS Stereo
Идентификатор кодека : 55
Идентификатор кодека/Подсказка : MP3
Продолжительность : 35 м.
Вид битрейта : Постоянный
Битрейт : 128 Кбит/сек
Каналы : 2 канала
Частота : 48,0 КГц
Метод сжатия : С потерями
Размер потока : 32,3 Мбайт (6%)
Выравнивание : Соединение по промежуткам
Продолжительность промежутка : 42 мс. (1,00 видеокадр)
Время предзагрузки промежутка : 504 мс.

Аудио #2
Идентификатор : 2
Формат : MPEG Audio
Версия формата : Version 1
Профиль формата : Layer 3
Режим : Joint stereo
Расширение режима : MS Stereo
Идентификатор кодека : 55
Идентификатор кодека/Подсказка : MP3
Продолжительность : 35 м.
Вид битрейта : Постоянный
Битрейт : 128 Кбит/сек
Каналы : 2 канала
Частота : 48,0 КГц
Метод сжатия : С потерями
Размер потока : 32,3 Мбайт (6%)
Выравнивание : Соединение по промежуткам
Продолжительность промежутка : 42 мс. (1,00 видеокадр)
Время предзагрузки промежутка : 504 мс.




fa5c34260a30c304a99f851412c1dc2b443c04b3Кейси Джонс / Casey Jones (Иларион Бэнкс, Короткометражка, фэнтези, боевик, приключения, 2011) [DVDRip, Профессиональный (многоголосый) + Оригинал] Кейси Джонс / Casey Jones (Иларион Бэнкс, Короткометражка, фэнтези, боевик, приключения, 2011) [DVDRip, Профессиональный (многоголосый) + Оригинал] " />

Аплоадер: Админ, дата: 21-12-2012, 14:25, торрент скачан: 359 раз

Понравилась раздача? Посмотрите эти:
  • Слежка / The Letter (Джей Ананья, Триллер, драма, 2012) [DVDRip, Профессион ...
  • Астрал на улице Арлетт / 388 Arletta Avenue (Рэндолл Коул, Триллер, 2011) [ ...
  • Злые птицы: Хэллоуин / Angry Birds: HamOWeen (Джей Ройвайнен, Мультфильм, к ...
  • Киддо - супергрузовичок / Kiddo The Super Truck (Д. Нэйр, Мультфильм, 2002) ...
  • Темный сахар / Brown Sugar (Рик Фамуйива, Драма, мелодрама, комедия, музыка ...
  • Вечерний Ургант // Сезон 2. Выпуск 56 (ТВ-шоу, 11.12.2012) [SATRip, Не треб ...
  • Бог любви / God of Love (Люк Мэзени, Короткометражка, фэнтези, комедия, мел ...
  • Вечерний Ургант // Сезон 2. Выпуск 62 (ТВ-шоу, 19.12.2012) [SATRip, Не треб ...
  • Вечерний Ургант // Сезон 2. Выпуск 63 (ТВ-шоу, 20.12.2012) [SATRip, Не треб ...
  • Заместитель / Il supplente (Андреа Жублин, Короткометражка, комедия, 2007) ...
  • Вечерний Ургант // Сезон 2. Выпуск 64 (ТВ-шоу, 21.12.2012) [SATRip, Не треб ...
  • Вечерний Ургант // Сезон 2. Выпуск 66 (ТВ-шоу, 25.12.2012) [SATRip, Не треб ...
  • Вечерний Ургант // Сезон 2. Выпуск 68 (ТВ-шоу, 27.12.2012) [SATRip, Не треб ...
  • Дорога на... / Road to (Таисия Игуменцева, Комедия, короткометражный, 2011) ...
  • Покорить высоту / Take It to the Limit (Сэм Кит / Sam Kieth, семейный, 2000 ...
  • Светлячок. Воссоединение Коричневых плащей к 10 годовщине / Firefly 10th An ...
  • А что насчет тебя? / How About You (Энтони Бирн, Драма, комедия, 2007) [DVD ...
  • В лесу / The Forest (Шан Серафин, ужасы, триллер , 2011) [SATRip, Профессио ...
  • Ловцы забытых голосов / Hoshi wo Ou Kodomo (2011) [HDRip, любительский (одн ...
  • Бюро находок : Потерянный и найденный / Lost and Found (Филип Хант, коротко ...
  • Информация
    Посетители, находящиеся в группе Гости, не могут оставлять комментарии к данной публикации.