вход на сайт

Имя пользователя :
Пароль :

Восстановление пароля Регистрация
Бог любви / God of Love (Люк Мэзени, Короткометражка, фэнтези, комедия, мелодрама, 2010) [HDRip, Профессиональный двухголосый закадровый + Оригинал]
Рейтинг:
(голосов: 1)



[img]{THEME}/images/logopost.png[/img]



♠ Бог любви / God of Love ♠
« Молитвы чемпиона »



♠Год выпуска: 2010
♠Страна: США
♠Жанр: Короткометражка, фэнтези, комедия, мелодрама
♠Режиссёр: Люк Мэзени
♠В ролях: Люк Мэзени, Кристофер Херш, Мэриэн Брок, Эмили Янг, Мигель Розалес, Марк Жесснер, Франческа МакЛафлин, Дэвид С. Росс, Элизабет Олин и другие.
♠Перевод: Профессиональный двухголосый закадровый + Оригинал
♠Субтитры: Отсутствует



♠Описание ▼ Молитвы чемпиона по игре в дротики услышаны — в его распоряжение попадают дротики вызывающие влюбленность…
Премия за лучший короткометражный фильм

♠Рейтинг:

♠Качество: HDRip
♠Продолжительность: 00:18:46 час.

♠Формат: AVI
♠Видео кодек: XviD
♠Аудио кодек: MPEG-3
♠Видео: XviD MPEG-4. 720x400 (1.80:1), 23.976 fps,~1972 kbps avg, 0.28 bit/pixel
♠Аудио #1: MPEG Layer 3. 48 kHz, 2 ch, ~128.00 kbps avg
♠Аудио #2: [Русский] MPEG Layer 3. 48 kHz, 2 ch, ~128.00 kbps avg

♠Премьера(мир): 12 июня 2010


MediaInfo ▼
Text
Общее
Полное имя : D:bog lubvi.avi
Формат : AVI
Формат/Информация : Audio Video Interleave
Размер файла : 301 Мбайт
Продолжительность : 18 м.
Общий поток : 2244 Кбит/сек
Программа кодирования : VirtualDubMod 1.5.10.2 (build 2540/release)
Библиотека кодирования : VirtualDubMod build 2540/release

Видео
Идентификатор : 0
Формат : MPEG-4 Visual
Профиль формата : Advanced [email protected]
Параметр BVOP формата : 3
Параметр QPel формата : Нет
Параметр GMC формата : Без точки перехода
Параметр матрицы формата : Default (MPEG)
Режим смешивания : Сжатый битовый поток
Идентификатор кодека : XVID
Идентификатор кодека/Подсказка : XviD
Продолжительность : 18 м.
Битрейт : 1974 Кбит/сек
Ширина : 720 пикселей
Высота : 400 пикселей
Соотношение сторон : 16:9
Частота кадров : 23,976 кадра/сек
Цветовое пространство : YUV
Субдискретизация насыщенности : 4:2:0
Битовая глубина : 8 бит
Тип развёртки : Прогрессивная
Метод сжатия : С потерями
Бит/(Пиксели*Кадры) : 0.286
Размер потока : 265 Мбайт (88%)
Библиотека кодирования : XviD 1.2.1 (UTC 2008-12-04)

Аудио #1
Идентификатор : 1
Формат : MPEG Audio
Версия формата : Version 1
Профиль формата : Layer 3
Идентификатор кодека : 55
Идентификатор кодека/Подсказка : MP3
Продолжительность : 18 м.
Вид битрейта : Постоянный
Битрейт : 128 Кбит/сек
Каналы : 2 канала
Частота : 48,0 КГц
Метод сжатия : С потерями
Размер потока : 17,2 Мбайт (6%)
Выравнивание : Соединение по промежуткам
Продолжительность промежутка : 42 мс. (1,00 видеокадр)
Время предзагрузки промежутка : 504 мс.
Библиотека кодирования : LAME3.98r
Настройки программы : -m s -V 4 -q 2 -lowpass 17 -b 128

Аудио #2
Идентификатор : 2
Формат : MPEG Audio
Версия формата : Version 1
Профиль формата : Layer 3
Идентификатор кодека : 55
Идентификатор кодека/Подсказка : MP3
Продолжительность : 18 м.
Вид битрейта : Постоянный
Битрейт : 128 Кбит/сек
Каналы : 2 канала
Частота : 48,0 КГц
Метод сжатия : С потерями
Размер потока : 17,2 Мбайт (6%)
Выравнивание : Соединение по промежуткам
Продолжительность промежутка : 42 мс. (1,00 видеокадр)
Время предзагрузки промежутка : 504 мс.
Библиотека кодирования : LAME3.98r
Настройки программы : -m s -V 4 -q 2 -lowpass 17 -b 128

8800fe84c14af621babbebf4299cfd9db5f1d7a6Бог любви / God of Love (Люк Мэзени, Короткометражка, фэнтези, комедия, мелодрама, 2010) [HDRip, Профессиональный двухголосый закадровый + Оригинал] Бог любви / God of Love (Люк Мэзени, Короткометражка, фэнтези, комедия, мелодрама, 2010) [HDRip, Профессиональный двухголосый закадровый + Оригинал] " />

Аплоадер: Админ, дата: 18-12-2012, 16:42, торрент скачан: 359 раз

Понравилась раздача? Посмотрите эти:
  • Миллионы Брюстера / Brewsters Millions (Уолтер Хилл, Комедия, 1985) [HDTVRi ...
  • Грязная кампания за честные выборы / The Campaign (Джей Роуч , Комедия,201 ...
  • Рождённый свободным / The Colt (Елена Ланская, драма, боевик, история, 200 ...
  • Злые птицы: Хэллоуин / Angry Birds: HamOWeen (Джей Ройвайнен, Мультфильм, к ...
  • Киддо - супергрузовичок / Kiddo The Super Truck (Д. Нэйр, Мультфильм, 2002) ...
  • Кажется, я люблю свою жену / I Think I Love My Wife (Крис Рок, Драма, мелод ...
  • Любовь по расписанию / Поезд (Сергей Мезенцев, мелодрама, 2012) [HDTVRip, Н ...
  • Вечерний Ургант // Сезон 2. Выпуск 62 (ТВ-шоу, 19.12.2012) [SATRip, Не треб ...
  • Вечерний Ургант // Сезон 2. Выпуск 63 (ТВ-шоу, 20.12.2012) [SATRip, Не треб ...
  • Кейси Джонс / Casey Jones (Иларион Бэнкс, Короткометражка, фэнтези, боевик, ...
  • Заместитель / Il supplente (Андреа Жублин, Короткометражка, комедия, 2007) ...
  • Вечерний Ургант // Сезон 2. Выпуск 66 (ТВ-шоу, 25.12.2012) [SATRip, Не треб ...
  • Вечерний Ургант // Сезон 2. Выпуск 68 (ТВ-шоу, 27.12.2012) [SATRip, Не треб ...
  • Дорога на... / Road to (Таисия Игуменцева, Комедия, короткометражный, 2011) ...
  • Покорить высоту / Take It to the Limit (Сэм Кит / Sam Kieth, семейный, 2000 ...
  • Светлячок. Воссоединение Коричневых плащей к 10 годовщине / Firefly 10th An ...
  • А что насчет тебя? / How About You (Энтони Бирн, Драма, комедия, 2007) [DVD ...
  • Брат якудзы / Brother (Такеши Китано, триллер, драма, криминал, 2000) [HDRi ...
  • Детский душ / Baby Shower (Pablo Illanes, Ужасы, 2011) [DVDRip, Любительски ...
  • Привет, Джули! / Flipped (Роб Райнер, драма, мелодрама, комедия , 2010) [HD ...
  • В лесу / The Forest (Шан Серафин, ужасы, триллер , 2011) [SATRip, Профессио ...
  • Ловцы забытых голосов / Hoshi wo Ou Kodomo (2011) [HDRip, любительский (одн ...
  • Пожирая живых / Ночь зомби / Zombie Night (Дэвид Дж. Фрэнсис, Ужасы, комеди ...
  • Бюро находок : Потерянный и найденный / Lost and Found (Филип Хант, коротко ...
  • Сдохни, Джон Такер / John Tucker Must Die (Бетти Томас, мелодрама, комедия, ...
  • Информация
    Посетители, находящиеся в группе Гости, не могут оставлять комментарии к данной публикации.