вход на сайт

Имя пользователя :
Пароль :

Восстановление пароля Регистрация
16 желаний / 16 Wishes (Питер ДеЛуис, Фэнтези, семейный, 2010) [HDRip, Профессиональный (дублированный)]
Рейтинг:
(голосов: 1)



[img]{THEME}/images/logopost.png[/img]



16 желаний / 16 Wishes
«Бойтесь своих желаний. Они могут... сбыться!»

Год выпуска: 2010
Страна: США Канада
Производство: Unity Pictures, Marvista Entertainment
Жанр: Фэнтези, семейный

Режиссёр: Питер ДеЛуис
В ролях: Дебби Райан, Жан-Люк Билодо, Анна Мэй Рутледж, Карисса Тьюнс, Кендалл Кросс, Патрик Гилмор, Кайнан Виб, Кинэн Трэйси, Джесси Рейд, Ёел Семанде

Перевод: Профессиональный (дублированный) [студия Кипарис по заказу Disney Character Voices International]
Субтитры: Отсутствуют

Описание
Эбби Дженсен планировала свое 16-летие с того момента как она была маленькой девочкой. Когда наступает этот день, она добавляет последнее (16-ое) желание в свой список желаний. К ее удивлению она получает коробку с 16-ю праздничными свечами, каждая из которых соответствует номеру ее желаний в списке. Как ее желания исполняются, ее день становится все лучше и лучше, пока она не загадает желание изменившее все и поможет себе понять что быть ребенком не так уж и плохо.



Доп. информация
Премьеры ▼премьера (мир) 25 июня 2010
премьера (РФ) 26 января 2012, «Вольга»

Mediainfo ▼TextGeneral
Complete name : D:Торренты16 Wishes.HDRip.Rutracker.org_Drek.avi
Format : AVI
Format/Info : Audio Video Interleave
File size : 743 MiB
Duration : 1h 30mn
Overall bit rate : 1 152 Kbps
Movie name : 16 Wishes
Director : HDRip by Дрек
Writing application : VirtualDubModRus 1.5.10.2 (build 2542/release)
Writing library : VirtualDubMod build 2542/release
Original source form/Name : Movie
Copyright : R.G.Torrents.Ru
Comment : для Rutracker.org
Video
ID : 0
Format : MPEG-4 Visual
Format profile : Advanced [email protected]
Format settings, BVOP : Yes
Format settings, QPel : No
Format settings, GMC : No warppoints
Format settings, Matrix : Custom
Codec ID : XVID
Codec ID/Hint : XviD
Duration : 1h 30mn
Bit rate : 1 015 Kbps
Width : 640 pixels
Height : 352 pixels
Display aspect ratio : 16:9
Frame rate : 23.976 fps
Resolution : 8 bits
Colorimetry : 4:2:0
Scan type : Progressive
Bits/(Pixel*Frame) : 0.188
Stream size : 654 MiB (88%)
Writing library : XviD 62
Audio
ID : 1
Format : MPEG Audio
Format version : Version 1
Format profile : Layer 3
Codec ID : 55
Codec ID/Hint : MP3
Duration : 1h 30mn
Bit rate mode : Constant
Bit rate : 128 Kbps
Channel(s) : 2 channels
Sampling rate : 48.0 KHz
Stream size : 82.5 MiB (11%)
Alignment : Aligned on interleaves
Interleave, duration : 42 ms (1.00 video frame)
Interleave, preload duration : 504 ms
Writing library : LAME3.98r
Encoding settings : -m s -V 4 -q 2 -lowpass 17 -b 128

Тех. данные
Качество: HDRip (Исходник: BDRip 1080p)
Продолжительность: 01:27:00

Формат: AVI
Видео кодек: XviD
Аудио кодек: МР3
Видео: 640x352 (1.82:1), 23.976 fps, XviD build 62 ~1014 kbps avg, 0.19 bit/pixel
Аудио: 48 kHz, MPEG Layer 3, 2 ch, ~128.00 kbps avg


|Cтол заказов| Наши раздачи| Набор в группу| Сказать спасибо|


75c9395f036a4c3ed4fc0165916deb6e41fd342016 желаний / 16 Wishes (Питер ДеЛуис, Фэнтези, семейный, 2010) [HDRip, Профессиональный (дублированный)] 16 желаний / 16 Wishes (Питер ДеЛуис, Фэнтези, семейный, 2010) [HDRip, Профессиональный (дублированный)] " />

Аплоадер: Админ, дата: 27-01-2013, 17:02, торрент скачан: 359 раз

Понравилась раздача? Посмотрите эти:
  • 12 Рождественских желаний / 12 Wishes of Christmas (Питер Салливан, Фэнтези ...
  • 12 Рождественских желаний / 12 Wishes of Christmas (Питер Салливан, фэнтези ...
  • Рождественские приключения семейства Фоксов / The Night Before the Night B ...
  • Погнали! / Getaway (Кортни Соломон, Боевик,Криминал, 2013) [HDRip, Професси ...
  • Мэрайа Мунди и шкатулка Мидаса / The Adventurer: The Curse of the Midas Box ...
  • Воображариум / Imaginaerum (Стобе Харью, Фэнтези, приключения, мюзикл, драм ...
  • 12 раундов: Перезагрузка / 12 Rounds: Reloaded (Роэль Рейн, Боевик, 2013) [ ...
  • Скуби-Ду! Маска Синего Сокола / Scooby-Doo! Mask Of The Blue Falcon (Оливье ...
  • Новые парни турбо / New Kids Turbo (Штефен Хаарс, Боевик, комедия, 2010) [H ...
  • 16 Желаний / 16 Wishes (Питер ДеЛуис / Peter DeLuise, Комедия, 2010) [HDTVR ...
  • Маленький Николя / Le Petit Nicolas ( Лорен Тирар,комедия, семейный,2009 ) ...
  • Союз зверей / Die Konferenz der Tiere (Райнхард Клоосс, Хольгер Таппе, Муль ...
  • 16 Желаний / 16 Wishes (Питер ДеЛуис, фэнтези, семейный, 2010) [HDRip, Дубл ...
  • Книга желаний/ Holiday Wishes (Дэвид Уивер , Фэнтези, драма, семейный, 200 ...
  • Книга желаний / Holiday Wishes (Дэвид Уивер, Фэнтези, драма, семейный, 2006 ...
  • Ключ от всех дверей / The Skeleton Key (Иэн Софтли, ужасы, 2005) [HDRip, Ду ...
  • Мистер Ганджубас / Mr. Nice (Бернард Роуз, Драма, комедия, 2010)[HDRip, Про ...
  • Военные игры / War Games: At the End of the Day(Козимо Алема, Триллер, Ужас ...
  • Романтики / The Romantics (Галт Нидерхоффер, Драма, мелодрама, комедия, 201 ...
  • Три балбеса / The Three Stooges (Бобби Фаррелли, Питер Фаррелли, Комедия, 2 ...
  • Информация
    Посетители, находящиеся в группе Гости, не могут оставлять комментарии к данной публикации.