вход на сайт

Имя пользователя :
Пароль :

Восстановление пароля Регистрация
Руби Спаркс / Ruby Sparks (Джонатан Дэйтон, Валери Фэрис, Фэнтези, мелодрама, комедия, 2012) [HDRip, Профессиональный (полное дублирование)]
Рейтинг:
(голосов: 1)



[img]{THEME}/images/logopost.png[/img]



• Руби Спаркс / Ruby Sparks •
«Невероятная история любви, ставшая реальностью»

Год выпуска: 2012
Страна: США
Производство: Bona Fide Productions, Fox Searchlight Pictures
Жанр: Фэнтези, мелодрама, комедия

Режиссёр: Джонатан Дэйтон
В ролях: Пол Дано, Зои Казан, Антонио Бандерас, Аннетт Бенинг, Стив Куган, Эллиот Гулд, Крис Мессина, Аасиф Мандви, Тони Тракс, Дебора Энн Уолл

Перевод: Профессиональный (полное дублирование)
Субтитры: Нет

Описание: Молодой, но уже успешный писатель переживает творческие и душевные муки: новый роман никак не выходит, музы все нет, да и вообще с девушками как-то не клеится. И вот, призвав на помощь остатки своей фантазии, Кэлвин придумывает себе девушку по имени Руби Спаркс — умницу, красавицу, спортсменку, короче говоря, идеал, а спустя неделю… обнаруживает этот идеал из плоти и крови на своем собственном диване. Уходить Руби явно не собирается, но вот кем она окажется — Галатеей или Белочкой?..Дата премьеры (мир): 25 июля 2012
Дата премьеры (РФ): 27 сентября 2012, «Двадцатый Век Фокс СНГ»

Качество: HDRip
Продолжительность: 01:44:06


Формат: AVI
Видео кодек: XviD
Аудио кодек: MP3
Видео: 624x336 (1.86:1), 23.976 fps, XviD build 50 ~860 kbps avg, 0.17 bit/pixel
Аудио: 48 kHz, MPEG Layer 3, 2 ch, ~128.00 kbps avg

"Mediainfo:" ▼TextGeneral
Format : AVI
Format/Info : Audio Video Interleave
File size : 743 MiB
Duration : 1h 44mn
Overall bit rate : 998 Kbps
Writing application : VirtualDubMod 1.5.10.2 (build 2540/release)
Writing library : VirtualDubMod build 2540/release
Video #0
ID : 0
Format : MPEG-4 Visual
Format profile : Advanced [email protected]
Format settings, BVOP : Yes
Format settings, QPel : No
Format settings, GMC : No warppoints
Format settings, Matrix : Custom
Codec ID : XVID
Codec ID/Hint : XviD
Duration : 1h 44mn
Bit rate : 861 Kbps
Width : 624 pixels
Height : 336 pixels
Display aspect ratio : 1.857
Frame rate : 23.976 fps
Color space : YUV
Chroma subsampling : 4:2:0
Bit depth : 8 bits
Scan type : Progressive
Compression mode : Lossy
Bits/(Pixel*Frame) : 0.171
Stream size : 641 MiB (86%)
Writing library : XviD 1.2.1 (UTC 2008-12-04)
Audio #1
ID : 1
Format : MPEG Audio
Format version : Version 1
Format profile : Layer 3
Codec ID : 55
Codec ID/Hint : MP3
Duration : 1h 44mn
Bit rate mode : Constant
Bit rate : 128 Kbps
Channel(s) : 2 channels
Sampling rate : 48.0 KHz
Compression mode : Lossy
Stream size : 95.3 MiB (13%)
Alignment : Aligned on interleaves
Interleave, duration : 42 ms (1.00 video frame)
Interleave, preload duration : 504 ms
Writing library : LAME3.97
Encoding settings : -m s -V 4 -q 2 -lowpass 17 -b 128


Релиз Группы "Virtus"

Стол заказов / Вступление в РГ / Благодарности, критика и другое


8c4e045ce487af2c032b2d5a7b399d8571417955Руби Спаркс / Ruby Sparks (Джонатан Дэйтон, Валери Фэрис, Фэнтези, мелодрама, комедия, 2012) [HDRip, Профессиональный (полное дублирование)] Руби Спаркс / Ruby Sparks (Джонатан Дэйтон, Валери Фэрис, Фэнтези, мелодрама, комедия, 2012) [HDRip, Профессиональный (полное дублирование)] " />

Аплоадер: Админ, дата: 24-01-2013, 03:01, торрент скачан: 359 раз

Понравилась раздача? Посмотрите эти:
  • Решала (Роман Асхаев, Драма,Криминал, 2012) [WEB-DLRip, Не требуется]
  • Скуби-Ду! Маска Синего Сокола / Scooby-Doo! Mask Of The Blue Falcon (Оливье ...
  • Руби Спаркс / Ruby Sparks (Джонатан Дэйтон, Валери Фэрис, фэнтези, мелодрам ...
  • Руби Спаркс / Ruby Sparks (Джонатан Дэйтон, Валери Фэрис, Фэнтези, мелодрам ...
  • Лучший стрелок / Top Gun (Тони Скотт, боевик, драма, мелодрама, 1986) [BDRi ...
  • Эрик Викинг / Erik the Viking (Терри Джонс, фэнтези, комедия, приключения, ...
  • Руби Спаркс / Ruby Sparks (Джонатан Дэйтон, Валери Фэрис, Фэнтези, мелодрам ...
  • Руби Спаркс / Ruby Sparks (Джонатан Дэйтон, Валери Фэрис, Фэнтези, мелодрам ...
  • Коллекционер 2 / The Collection (Маркус Данстэн, ужасы, боевик, триллер , 2 ...
  • Мой парень – псих / Silver Linings Playbook (Дэвид О. Расселл, Драма, мелод ...
  • Руби Спаркс / Ruby Sparks (Джонатан Дэйтон, Валери Фэрис, Фэнтези, мелодрам ...
  • Чемпионат Европы 2012 / Группа C / 1-й тур / Ирландия — Хорватия / ТРК Футб ...
  • Чемпионат Европы 2012 / Группа D / 1-й тур / Украина - Швеция / Спорт 1 [11 ...
  • Tank Feat. T.I. & Kris Stephens / Compliments [2012, RnB,Hip-Hop, HDRip]
  • [iPhone, iPod] Руби Спаркс / Ruby Sparks (Джонатан Дэйтон, фэнтези, мелодра ...
  • Чемпионат Европы 2012 / Группа B / 1-й тур / Германия - Португалия / Спорт ...
  • Товарищеский матч 2012 / АмаЗулу (ЮАР) - Манчестер Юнайтед (Англия) / MU TV ...
  • Олимпиада 2012 / Женщины, Мужчины / Плавание / Квалификация / НТВ+ [30.07.2 ...
  • Глушь / Resurrection County (Matt Zettell, ужасы, триллер, 2008) [DVDRip, П ...
  • Рука-убийца / Idle Hands (Родмен Флендер,ужасы, триллер, комедия, 1999) [HD ...
  • Информация
    Посетители, находящиеся в группе Гости, не могут оставлять комментарии к данной публикации.