вход на сайт

Имя пользователя :
Пароль :

Восстановление пароля Регистрация
Когда Санта упал на землю / Als der Weihnachtsmann vom Himmel fiel (Оливер Дикманн, фэнтези, комедия, семейный, 2011) [HDRip, Профессиональный (многоголосый, закадровый)]
Рейтинг:
(голосов: 1)



[img]{THEME}/images/logopost.png[/img]



•Когда Санта упал на землю / Als der Weihnachtsmann vom Himmel fiel •
♥ Год выпуска: 2011
♥ Страна: Германия
♥ Производство: Bavaria Film
♥ Жанр: фэнтези, комедия, семейный

♥ Режиссёр: Оливер Дикманн
♥ В ролях: Александр Шеер, Ной Краус, Ядеа, Джессика Шварц, Фриц Карл, Фолькер Лехтенбринк, Кристин Урспрух, Чарли Хюбнер, Грушенка Стивенс

♥ Перевод: Профессиональный (многоголосый, закадровый)
♥ Субтитры: Отсутствуют

♥ Описание: Маленькому Бену, переехавшему из большого города в маленький городок накануне Рождества, очень грустно: папа потерял работу, мама занята открытием своего кондитерского магазина, да и в новой школе ему на особо рады. И вот, как-то в грозу, с неба падает Санта-Клаус, и жизнь Бена переворачивается с ног на голову. Так начинаются волшебные рождественские приключения Бена и его одноклассницы Шарлотты


MediaInfo ▼
TextGeneral
Complete name : C:Kogda.Santa.ypal.na.zemlu.2011.P.HDRip.700MB.avi
Format : AVI
Format/Info : Audio Video Interleave
File size : 702 MiB
Duration : 1h 47mn
Overall bit rate : 915 Kbps
Movie name : / Als der Weihnachtsmann vom Himmel fiel (2011)
Writing application : Lavf52.94.0
Video #0
ID : 0
Format : xvid
Codec ID : xvid
Duration : 1h 47mn
Bit rate : 775 Kbps
Width : 640 pixels
Height : 272 pixels
Display aspect ratio : 2.35:1
Frame rate : 24.000 fps
Bits/(Pixel*Frame) : 0.185
Stream size : 594 MiB (85%)
Audio #1
ID : 1
Format : MPEG Audio
Format version : Version 1
Format profile : Layer 3
Mode : Joint stereo
Mode extension : MS Stereo
Codec ID : 55
Codec ID/Hint : MP3
Duration : 1h 47mn
Bit rate mode : Constant
Bit rate : 128 Kbps
Channel(s) : 2 channels
Sampling rate : 48.0 KHz
Compression mode : Lossy
Stream size : 98.2 MiB (14%)
Alignment : Aligned on interleaves
Interleave, duration : 24 ms (0.58 video frame)
♥ Качество: HDRip
♥ Продолжительность: 01:47:17

♥ Формат: AVI
♥ Видео кодек: XviD
♥ Аудио кодек: MP3
♥ Видео: 640x272 (2.35:1), 24 fps, XviD ~775 kbps avg, 0.185 bit/pixel
♥ Аудио1: 48 kHz, MPEG Layer 3, 2 ch, ~128.00 kbps avg


♥ Дата премьеры (мир): 24 ноября 2011


Релиз Группы "Virtus"

Стол заказов / Вступление в РГ / Благодарности, критика и другое



3cd02b6304b61655b88223f8bc0149747acb7c95Когда Санта упал на землю / Als der Weihnachtsmann vom Himmel fiel (Оливер Дикманн, фэнтези, комедия, семейный, 2011) [HDRip, Профессиональный (многоголосый, закадровый)] Когда Санта упал на землю / Als der Weihnachtsmann vom Himmel fiel (Оливер Дикманн, фэнтези, комедия, семейный, 2011) [HDRip, Профессиональный (многоголосый, закадровый)] " />

Аплоадер: Админ, дата: 10-01-2013, 17:46, торрент скачан: 359 раз

Понравилась раздача? Посмотрите эти:
  • Санта Клаус / The Santa Clause (Джон Пасквин, Фэнтези, драма, комедия, семе ...
  • Санта Клаус 2 / The Santa Clause 2 (Майкл Лембек, Фэнтези, комедия, семейн ...
  • Рождественские приключения семейства Фоксов / The Night Before the Night B ...
  • Погнали! / Getaway (Кортни Соломон, Боевик,Криминал, 2013) [HDRip, Професси ...
  • Верное дельце / Une pure affaire (Александр Коффре, Боевик, Комедия, Кримин ...
  • Посылка / The Package (Джесси Джонсон, боевик, 2013) [HDRip, Профессиональн ...
  • Мэрайа Мунди и шкатулка Мидаса / The Adventurer: The Curse of the Midas Box ...
  • В хлам / Smashed (Джеймс Понсольдт, Драма, комедия, 2012) [HDRip, Профессио ...
  • Любовь на кончиках пальцев / Populaire (Режис Ройнсар, Мелодрама, комедия, ...
  • Магазин самоубийств / Le magasin des suicides (Патрис Леконт, Мультфильм, м ...
  • Лучший стрелок / Top Gun (Тони Скотт, боевик, драма, мелодрама, 1986) [BDRi ...
  • Эрик Викинг / Erik the Viking (Терри Джонс, фэнтези, комедия, приключения, ...
  • Когда Санта упал на землю / Als der Weihnachtsmann vom Himmel fiel (Оливер ...
  • Чемпионат Испании 2011-12 / 36-й тур / Реал Мадрид - Севилья / НТВ+ [Футбол ...
  • Санта Клаус 2 / The Santa Clause 2 (Майкл Лембек, фэнтези, комедия, семейн ...
  • Буря в Арктике / Arctic Blast (Брайан Тренчард-Смит, фантастика, триллер, 2 ...
  • Маленький Николя / Le Petit Nicolas ( Лорен Тирар,комедия, семейный,2009 ) ...
  • Machete / Нежность [2011, R&B, HDRip]
  • Чемпионат Англии 2011-12 / 35 тур / Манчестер Юнайтед - Эвертон / Спорт 1 [ ...
  • Замёрзший мир / 2012: Ice Age (Трэвис Форт, фантастика, боевик, 2011) [HDRi ...
  • Три балбеса / The Three Stooges (Бобби Фаррелли, Питер Фаррелли, Комедия, 2 ...
  • Девушки в опасности / Damsels in Distress (Уит Стиллман, драма, мелодрама, ...
  • Искажение / Skew (Сейв Челенз, ужасы, триллер, 2011) [HDRip, Профессиональн ...
  • Ничего, кроме правды / Nothing But the Truth (Род Лури, триллер, драма, 200 ...
  • Из джунглей в джунгли / Jungle 2 Jungle (Джон Пасквин, комедия, приключения ...
  • Информация
    Посетители, находящиеся в группе Гости, не могут оставлять комментарии к данной публикации.