вход на сайт

Имя пользователя :
Пароль :

Восстановление пароля Регистрация
Омела над Манхэттеном / Рождество на Манхэттене / Mistletoe over Manhattan (Джон Брэдшоу, Фэнтези, драма, мелодрама, семейный, 2011) [DVB, Профессиональный (двухголосый закадровый) SDI Media + оригинал]
Рейтинг:
(голосов: 1)



[img]{THEME}/images/logopost.png[/img]



Омела над Манхэттеном / Рождество на Манхэттене / Mistletoe over Manhattan

Год выпуска: 2011
Страна: Канада, США
Производство: Chesler/Perlmutter Productions
Жанр: Фэнтези, драма, мелодрама, семейный

Режиссёр: Джон Брэдшоу
В ролях: Тришия Хелфер, Грег Брик, Тедди Мур, Кен Холл, Мэйртин ОКэрриган, Оливия Скрайвен, Питер ДаКунья, Дэймон Руньян, Джулиан ДеДзотти

Перевод: Профессиональный (двухголосый закадровый) SDI Media + оригинал
Субтитры: Oтсутствуют

Описание: Ребекка обеспокоена тем, что ее трудолюбивый муж Ник потерял ​​праздничное настроение. Она полагает, что может помочь ему вернуть свое счастье и тайно направляется в одно место, где дух Рождества все еще существует. Место, где она влюбилась в Ника — Нью-Йорк.
Качество: DVB
Продолжительность: 01:28:03

Формат: TS
Видео кодек: AVC
Аудио кодек: MP2
Видео: AVC; 704x576 (4:3); 1122 Kbps; 25 fps; Interlaced (); 0,111 bpp
Аудио: Russian; MPEG-1 Audio layer 2; 128 Kbps; CBR; 2 ch
Аудио: MPEG-1 Audio layer 2; 112 Kbps; CBR; 2 ch

"MediaInfo:" ▼General
ID : 10 (0xA)
Complete name : F: orrentMistletoe over Manhattan.ts
Format : MPEG-TS
File size : 922 MiB
Duration : 1h 28mn
Overall bit rate : 1 464 Kbps

Video
ID : 1405 (0x57D)
Menu ID : 405 (0x195)
Format : AVC
Format/Info : Advanced Video Codec
Format profile : [email protected]
Format settings, CABAC : Yes
Format settings, ReFrames : 3 frames
Codec ID : 27
Duration : 1h 28mn
Bit rate : 1 149 Kbps
Width : 704 pixels
Height : 576 pixels
Display aspect ratio : 4:3
Frame rate : 25.000 fps
Standard : Component
Color space : YUV
Chroma subsampling : 4:2:0
Bit depth : 8 bits
Scan type : Interlaced
Scan order : Top Field First
Bits/(Pixel*Frame) : 0.113
Stream size : 724 MiB (78%)
Color primaries : BT.470-6 System B, BT.470-6 System G, BT.601-6 625, BT.1358 625, BT.1700 625 PAL, BT.1700 625 SECAM
Transfer characteristics : BT.470-6 System B, BT.470-6 System G
Matrix coefficients : BT.470-6 System B, BT.470-6 System G, BT.601-6 625, BT.1358 625, BT.1700 625 PAL, BT.1700 625 SECAM, IEC 61966-2-4 601

Audio #1
ID : 2405 (0x965)
Menu ID : 405 (0x195)
Format : MPEG Audio
Format version : Version 1
Format profile : Layer 2
Codec ID : 4
Duration : 1h 28mn
Bit rate mode : Constant
Bit rate : 128 Kbps
Channel(s) : 2 channels
Sampling rate : 48.0 KHz
Compression mode : Lossy
Delay relative to video : 128ms
Stream size : 80.6 MiB (9%)
Language : Russian

Audio #2
ID : 3405 (0xD4D)
Menu ID : 405 (0x195)
Format : MPEG Audio
Format version : Version 1
Format profile : Layer 2
Codec ID : 4
Duration : 1h 28mn
Bit rate mode : Constant
Bit rate : 112 Kbps
Channel(s) : 2 channels
Sampling rate : 48.0 KHz
Compression mode : Lossy
Delay relative to video : 80ms
Stream size : 70.5 MiB (8%)
Language : English


Стол заказов POWER | Отзывы | Вступление в POWER


c32cacb8cc4d44e3ceef6b76ece8d3c6e3dd8a00Омела над Манхэттеном / Рождество на Манхэттене / Mistletoe over Manhattan (Джон Брэдшоу, Фэнтези, драма, мелодрама, семейный, 2011) [DVB, Профессиональный (двухголосый закадровый) SDI Media + оригинал] Омела над Манхэттеном / Рождество на Манхэттене / Mistletoe over Manhattan (Джон Брэдшоу, Фэнтези, драма, мелодрама, семейный, 2011) [DVB, Профессиональный (двухголосый закадровый) SDI Media + оригинал] " />

Аплоадер: Админ, дата: 27-12-2012, 18:28, торрент скачан: 359 раз

Понравилась раздача? Посмотрите эти:
  • Inna / More Than Friends [2013, Pop, Master]
  • Вот и Рождество / So This Is Christmas (Ричард Фостер, драма, мелодрама, ко ...
  • Достучаться До Небес / ГУГЛ [2013, Pop, Master]
  • Студия 17 // Сезон 1, Эпизоды 1 по 9 (из ??) (Комедия, 2013) [DVB, Не требу ...
  • Zaz / On Ira [2013, Jazz, Chanson, HDTV 1080i]
  • Чемпионат Англии 2012-2013 / 36-й тур / Манчестер Юнайтед - Челси / Спорт 1 ...
  • Чемпионат Германии 2012-2013 / 32-й тур / Боруссия (Дортмунд) – Бавария / Н ...
  • Чемпионат Испании 2012-13 / 34-й тур / Реал Мадрид - Вальядолид / НТВ+ [04. ...
  • Международная панорама / Эфир от 06.05.2013 / НТВ+ [06.05.2013, Футбол, H.2 ...
  • Чемпионат Мира по хоккею 2013 / Группа В / Россия - США / Россия 2 [Хоккей, ...
  • [NG] Путешествие по Атлантике: Часть 2 / Travel across the Atlantic: Part 2 ...
  • [NG] Превосходство бегемота / The superiority of the hippo (Документальный, ...
  • Римская империя: Август / Imperium: Augustus (Роджер Янг, драма, мелодрама, ...
  • Омела над Манхэттеном / Mistletoe Over Manhattan (Джон Брэдшоу, фэнтези, др ...
  • Чемпионат Испании 2011-12 / 35-й тур / Барселона - Реал / Футбол HD [Футбол ...
  • Рождество Христово - Торжественное Рождественское богослужение из Храма Хр ...
  • Тимати, B.K., DJ M.E.G. / Welcome to St. Tropez. Фан Зона. Новая Волна 2011 ...
  • Чемпионат Испании 2011-12 / 35-й тур / Барселона - Реал М / НТВ+ [Футбол, 2 ...
  • Товарищеский матч 2012 / Аргентина - Бразилия / Россия 2 [Футбол, 09.06.201 ...
  • Выжить любой ценой - Сезон 7 / Ultimate Survival - Season 7 (Документальный ...
  • Информация
    Посетители, находящиеся в группе Гости, не могут оставлять комментарии к данной публикации.