вход на сайт

Имя пользователя :
Пароль :

Восстановление пароля Регистрация
Эрик Викинг / Erik the Viking (Терри Джонс, фэнтези, комедия, приключения, 1989) [DVDRip, Профессиональный (многоголосый закадровый)]
Рейтинг:
(голосов: 1)



[img]{THEME}/images/logopost.png[/img]



• Эрик Викинг / Erik the Viking •
♥ Год выпуска: 1989
♥ Страна: Великобритания, Швеция
♥ Производство: KB Erik the Viking, Prominent Features, Svensk Filmindustri (SF) AB
♥ Жанр: фэнтези, комедия, приключения

♥ Режиссёр: Терри Джонс
♥ В ролях: Тим Роббинс, Микки Руни, Эрта Китт, Терри Джонс, Имоджен Стаббс, Джон Клиз, Тсутому Секине, Энтони Шер, Гари Кэди, Чарльз МакКоуэн

♥ Перевод: Профессиональный (многоголосый закадровый)
♥ Субтитры: Отсутствуют

♥ Описание: Согласно древним северным сказаниям Великий Волк Фенрир проглотил Солнце и на Земле наступила Великая Зима. Люди начали убивать друг друга, и эта бессмысленная бойня будет продолжаться до тех пор, пока не будет уничтожен весь мир. Или пока кто-нибудь не разбудит богов и не вернет Солнце на Небо.


MediaInfo ▼
TextGeneral
Complete name : C:ERIK_VIKING.avi
Format : AVI
Format/Info : Audio Video Interleave
File size : 744 MiB
Duration : 1h 38mn
Overall bit rate : 1 051 Kbps
Writing application : VirtualDubMod 1.5.10.2 (build 2540/release)
Writing library : VirtualDubMod build 2540/release
Video #0
ID : 0
Format : MPEG-4 Visual
Format profile : Advanced [email protected]
Format settings, BVOP : 1
Format settings, QPel : No
Format settings, GMC : No warppoints
Format settings, Matrix : Custom
Codec ID : XVID
Codec ID/Hint : XviD
Duration : 1h 38mn
Bit rate : 914 Kbps
Width : 688 pixels
Height : 384 pixels
Display aspect ratio : 16:9
Frame rate : 25.000 fps
Color space : YUV
Chroma subsampling : 4:2:0
Bit depth : 8 bits
Scan type : Progressive
Compression mode : Lossy
Bits/(Pixel*Frame) : 0.138
Stream size : 646 MiB (87%)
Writing library : XviD 1.2.1 (UTC 2008-12-04)
Audio #1
ID : 1
Format : MPEG Audio
Format version : Version 1
Format profile : Layer 3
Codec ID : 55
Codec ID/Hint : MP3
Duration : 1h 38mn
Bit rate mode : Constant
Bit rate : 128 Kbps
Channel(s) : 2 channels
Sampling rate : 48.0 KHz
Compression mode : Lossy
Stream size : 90.5 MiB (12%)
Alignment : Aligned on interleaves
Interleave, duration : 40 ms (1.00 video frame)
Interleave, preload duration : 504 ms
Writing library : LAME3.98r
Encoding settings : -m s -V 4 -q 2 -lowpass 17 -b 128
♥ Качество: DVDRip
♥ Продолжительность: 01:38:52

♥ Формат: AVI
♥ Видео кодек: XviD
♥ Аудио кодек: MP3
♥ Видео: 688x384 (16:9), 25 fps, XviD build 50 ~914 kbps avg, 0.138 bit/pixel
♥ Аудио: 48 kHz, MPEG Layer 3, 2 ch, ~128.00 kbps avg

♥ Дата премьеры (мир): 1 сентября 1989

Релиз Группы "Virtus"

Стол заказов / Вступление в РГ / Благодарности, критика и другое


b22db52f14aaaecd53248869aeed454b05e4b776Эрик Викинг / Erik the Viking (Терри Джонс, фэнтези, комедия, приключения, 1989) [DVDRip, Профессиональный (многоголосый закадровый)] Эрик Викинг / Erik the Viking (Терри Джонс, фэнтези, комедия, приключения, 1989) [DVDRip, Профессиональный (многоголосый закадровый)] " />

Аплоадер: Админ, дата: 15-12-2012, 17:14, торрент скачан: 359 раз

Понравилась раздача? Посмотрите эти:
  • Непристойная комедия / InAPPropriate Comedy (Винс Оффер, комедия, 2013) [D ...
  • Непристойная комедия / InAPPropriate Comedy (Винс Оффер, комедия, 2013) [DV ...
  • Погнали! / Getaway (Кортни Соломон, Боевик,Криминал, 2013) [HDRip, Професси ...
  • Мэрайа Мунди и шкатулка Мидаса / The Adventurer: The Curse of the Midas Box ...
  • Мэрайа Мунди и шкатулка Мидаса / The Adventurer: The Curse of the Midas Box ...
  • Альбатрос / Albatross (Найал МакКормик, Драма, 2011) [DVDRip, Профессиональ ...
  • В хлам / Smashed (Джеймс Понсольдт, Драма, комедия, 2012) [HDRip, Профессио ...
  • Магазин самоубийств / Le magasin des suicides (Патрис Леконт, Мультфильм, м ...
  • Скуби-Ду! Маска Синего Сокола / Scooby-Doo! Mask Of The Blue Falcon (Оливье ...
  • Лучший стрелок / Top Gun (Тони Скотт, боевик, драма, мелодрама, 1986) [BDRi ...
  • Псы войны / The Dogs of War (Джон Ирвин, боевик, драма, приключения, военны ...
  • Мой парень – псих / Silver Linings Playbook (Дэвид О. Расселл, Драма, мелод ...
  • Молодежный чемпионат мира 2012 (U-20). Четвертьфинал: Россия - Чехия [02.01 ...
  • Чемпионат Европы 2012 / Группа D / 1-й тур / Украина - Швеция / Спорт 1 [11 ...
  • Индиана Джонс: В поисках утраченного ковчега / Indiana Jones and the Raider ...
  • Индиана Джонс и Храм Судьбы / Indiana Jones and the Temple of Doom (Стивен ...
  • Индиана Джонс и последний крестовый поход / Indiana Jones and the Last Crus ...
  • Неделя в NBA с В.Гомельским / НТВ+ [28.06.2011, SD, XviD, RU, SAT]
  • Миленькие штучки / Les Jolies Choses (Жиль Паке-Бреннер, драма, 2011) [DVDR ...
  • Чемпионат Европы 2012 / Группа B / 1-й тур / Германия - Португалия / Спорт ...
  • Мгновение любви / Here (Браден Кинг, Драма, мелодрама, приключения, 2011) [ ...
  • Глушь / Resurrection County (Matt Zettell, ужасы, триллер, 2008) [DVDRip, П ...
  • Искажение / Skew (Сейв Челенз, ужасы, триллер, 2011) [HDRip, Профессиональн ...
  • Робинзон Крузо / Robinson Crusoe (Род Харди, Джордж Миллер, драма, приключе ...
  • Из джунглей в джунгли / Jungle 2 Jungle (Джон Пасквин, комедия, приключения ...
  • Информация
    Посетители, находящиеся в группе Гости, не могут оставлять комментарии к данной публикации.