вход на сайт

Имя пользователя :
Пароль :

Восстановление пароля Регистрация
Странная жизнь Тимоти Грина / The Odd Life of Timothy Green (Питер Хеджес, Фэнтези, драма, комедия, 2012) [BDRip-AVC, Дублированный]
Рейтинг:
(голосов: 1)



[img]{THEME}/images/logopost.png[/img]



Странная жизнь Тимоти Грина / The Odd Life of Timothy Green
«Hes a force of nature.»


Год выпуска: 2012 г.
Страна: США
Производство: Monsterfoot Productions, Scott Sanders Productions, Walt Disney Pictures
Жанр: фэнтези, драма, комедия

Режиссёр: Питер Хеджес
В ролях: Дженнифер Гарнер, Джоэл Эдгертон, С.Дж. Адамс, Одейя Раш, Шохре Агдашлу, Розмари ДеУитт, Дэвид Морс, Лоис Смит, Лин-Мануэль Миранда, Дайэнн Уист, Рон Ливингстон, Джеймс Ребхорн

Перевод: Профессиональный (полное дублирование)
Субтитры: нет

Описание: Одна пара потеряла последнюю надежду зачать ребенка, но однажды происходит чудо — младенец появляется на свет. Но он оказывается не тем, кем кажется на первый взгляд…Качество: BDRip-AVC
Продолжительность: 01:44:37

Формат: MKV
Видео кодек: H.264
Аудио кодек: AC3
Видео: 1024x576 (16/9), 23.976 fps, 2 088 Kbps (0.145 bit/pixel)
Аудио #1: 48.0 KHz, 6 ch, 448 Kbps Rus
Аудио #2: 48.0 KHz, 6 ch, 448 Kbps Eng

Дата премьеры (мир): 15 августа 2012
Media Info ▼General
Unique ID : 248192757825569079157326755619428071699 (0xBAB82FB9B8A37BE290322FE04D137913)
Complete name : H:JRGThe.Odd.Life.of.Timothy.Green.2012.x264.BDRip-AVC.JRG.mkv
Format : Matroska
Format version : Version 2
File size : 2.18 GiB
Duration : 1h 44mn
Overall bit rate : 2 986 Kbps
Movie name : The Odd Life of Timothy Green (2012) - The Jolly Roger by Pirat.Ca [zyyx]
Encoded date : UTC 2012-12-08 19:48:08
Writing application : mkvmerge v4.9.1 (Ich will) сборка от Aug 10 2011 09:31:20
Writing library : libebml v1.2.1 + libmatroska v1.2.0

Video
ID : 1
Format : AVC
Format/Info : Advanced Video Codec
Format profile : [email protected]
Format settings, CABAC : Yes
Format settings, ReFrames : 9 frames
Codec ID : V_MPEG4/ISO/AVC
Duration : 1h 44mn
Bit rate : 2 088 Kbps
Width : 1 024 pixels
Height : 576 pixels
Display aspect ratio : 16:9
Frame rate : 23.976 fps
Color space : YUV
Chroma subsampling : 4:2:0
Bit depth : 8 bits
Scan type : Progressive
Bits/(Pixel*Frame) : 0.148
Stream size : 1.48 GiB (68%)
Title : JRG
Writing library : x264 core 125 r2200 999b753
Encoding settings : cabac=1 / ref=9 / deblock=1:-1:-1 / analyse=0x3:0x133 / me=umh / subme=11 / psy=1 / psy_rd=1.00:0.10 / mixed_ref=1 / me_range=48 / chroma_me=1 / trellis=2 / 8x8dct=1 / cqm=0 / deadzone=21,11 / fast_pskip=0 / chroma_qp_offset=-3 / threads=26 / lookahead_threads=9 / sliced_threads=0 / nr=0 / decimate=1 / interlaced=0 / bluray_compat=0 / constrained_intra=0 / bframes=6 / b_pyramid=2 / b_adapt=2 / b_bias=0 / direct=3 / weightb=1 / open_gop=0 / weightp=2 / keyint=250 / keyint_min=23 / scenecut=40 / intra_refresh=0 / rc_lookahead=50 / rc=2pass / mbtree=1 / bitrate=2088 / ratetol=1.0 / qcomp=0.60 / qpmin=0 / qpmax=69 / qpstep=4 / cplxblur=20.0 / qblur=0.5 / ip_ratio=1.40 / aq=1:1.00
Language : English
Default : Yes
Forced : No

Audio #1
ID : 2
Format : AC-3
Format/Info : Audio Coding 3
Mode extension : CM (complete main)
Format settings, Endianness : Big
Codec ID : A_AC3
Duration : 1h 44mn
Bit rate mode : Constant
Bit rate : 448 Kbps
Channel(s) : 6 channels
Channel positions : Front: L C R, Side: L R, LFE
Sampling rate : 48.0 KHz
Bit depth : 16 bits
Compression mode : Lossy
Stream size : 335 MiB (15%)
Language : Russian
Default : Yes
Forced : No

Audio #2
ID : 3
Format : AC-3
Format/Info : Audio Coding 3
Mode extension : CM (complete main)
Format settings, Endianness : Big
Codec ID : A_AC3
Duration : 1h 44mn
Bit rate mode : Constant
Bit rate : 448 Kbps
Channel(s) : 6 channels
Channel positions : Front: L C R, Side: L R, LFE
Sampling rate : 48.0 KHz
Bit depth : 16 bits
Compression mode : Lossy
Stream size : 335 MiB (15%)
Language : English
Default : No
Forced : No



7ffbb09dd837bdcf87efb36d12933e169b925914Странная жизнь Тимоти Грина / The Odd Life of Timothy Green (Питер Хеджес, Фэнтези, драма, комедия, 2012) [BDRip-AVC, Дублированный] Странная жизнь Тимоти Грина / The Odd Life of Timothy Green (Питер Хеджес, Фэнтези, драма, комедия, 2012) [BDRip-AVC, Дублированный] " />

Аплоадер: Админ, дата: 10-12-2012, 16:36, торрент скачан: 359 раз

Понравилась раздача? Посмотрите эти:
  • Хроника / Chronicle (Джошуа Транк, фантастика, боевик, триллер, драма, 2012 ...
  • Соучастник / Collateral (Майкл Манн, Триллер, драма, криминал, 2004) [BDRip ...
  • Инопланетянин / E.T. the Extra-Terrestrial (Стивен Спилберг, Фантастика, фэ ...
  • Жизнь Пи / Life Of Pi (Энг Ли, Драма, приключения, 2012) [BDRip 720p, Профе ...
  • Жизнь Пи / Life Of Pi (Энг Ли, Драма, приключения, 2012) [BDRip 1080p, Проф ...
  • Муви 43 / Movie 43 (Стивен Брилл, Питер Фаррелли, Элизабет БэнксСтивен, ком ...
  • Проект X: Дорвались / Project X (Нима Нуризаде, комедия, 2012) [BDRip-AVC, ...
  • Черное золото / Black Gold (Жан-Жак Анно, Драма, 2011) [BDRip-AVC, Професси ...
  • Жажда странствий / Wanderlust (Дэвид Уэйн, Мелодрама, комедия, 2012) [BDRip ...
  • Странная жизнь Тимоти Грина / The Odd Life of Timothy Green (Питер Хеджес, ...
  • Странная жизнь Тимоти Грина / The Odd Life of Timothy Green (Питер Хеджес, ...
  • Проект X: Дорвались / Project X (Нима Нуризаде, комедия, 2012) [BDRip 720p, ...
  • Мачо и ботан / 21 Jump Street (Фил Лорд, Крис Миллер, боевик, комедия, 2012 ...
  • Странная жизнь Тимоти Грина / The Odd Life of Timothy Green (Питер Хеджес, ...
  • Странная жизнь Тимоти Грина / The Odd Life of Timothy Green (Питер Хеджес, ...
  • Mylene Farmer / Du Temps [2011, Pop, HDTVRip]
  • Mylene Farmer / Bleu Noir [2011, Pop, HDTVRip]
  • Странная жизнь Тимоти Грина / The Odd Life of Timothy Green (Питер Хеджес, ...
  • Странная жизнь Тимоти Грина / The Odd Life of Timothy Green (Питер Хеджес, ...
  • Странная жизнь Тимоти Грина / The Odd Life of Timothy Green (Питер Хеджес, ...
  • Информация
    Посетители, находящиеся в группе Гости, не могут оставлять комментарии к данной публикации.