вход на сайт

Имя пользователя :
Пароль :

Восстановление пароля Регистрация
Заяц Ватанена / Le lievre de Vatanen (Марк Ривьер, фэнтези, драма, 2006) [DVDRip-AVC, Профессиональный (многоголосый, закадровый)]
Рейтинг:
(голосов: 1)



[img]{THEME}/images/logopost.png[/img]



Заяц Ватанена / Le lievre de Vatanen

Год выпуска: 2006
Страна: Франция, Бельгия, Болгария
Производство: Gaumont, Bi Plan Production, LM Productions See more
Жанр: фэнтези, драма

Режиссёр: Марк Ривьер
В ролях: Кристофер Ламберт, Жюли Гайе, Реми Жирар, Франсуа Морель, Йохан Лейзен, Эрик Годон, Жан-Мари Винлин, Венсан Мартен, Кристиан Синниже, Филипп Гран’Анри, Доминик Беснеар, Эмилия Радева

Перевод: Профессиональный (многоголосый, закадровый) [ТО "Серебряная Полоса"]
Субтитры: Отсутсвуют

Описание: Рассказ о фотографе, который в современном мире, как человек, исчерпал ресурсы своего мастерства, разочаровался и пострадал от жизни, окружающей его. Случайно он оказывается в машине, которая по пути через лес сбивает зайца. Встреча с зайцем явилась для Тома Ватанена знаком с неба. Заяц стал для него проводником в новую жизнь. И в этой жизни, в лесу, он обретает то, чего ему не хватает в мире современных людей, - свободу. Среди природы, вбирая в себя её красоту, он учится чувствовать, любить. И, в конце концов, обретает сам себя...



Качество: DVDRip-AVC | Сэмпл
Продолжительность: 01:35:53

Формат: MKV
Видео кодек: H.264
Аудио кодек: AС3
Видео: [email protected] (1.85:1), 25 fps, AVC ~1713 kbs avg, 0.170 bit/pixel
Аудио: 48 kHz, AC3, 6 ch, ~448 kbs avg

"Mediaindo:" ▼Общее
Уникальный идентификатор : 236160115716379276335651229145710246626 (0xB1AAC8AA93F48206BEEE874234CCBAE2)
Полное имя : D: ayac.Watanena.DVDripAVC.mkv
Формат : Matroska
Версия формата : Version 2
Размер файла : 1,45 Гбайт
Продолжительность : 1 ч. 35 м.
Общий поток : 2161 Кбит/сек
Название фильма : = Заяц Ватанена / Le lievre de Vatanen DVDRip
Дата кодирования : UTC 2012-10-19 10:26:36
Программа кодирования : mkvmerge v3.3.0 (Language) gebaut am Mar 24 2010 14:59:24
Библиотека кодирования : libebml v0.8.0 + libmatroska v0.9.0

Видео
Идентификатор : 1
Формат : AVC
Формат/Информация : Advanced Video Codec
Профиль формата : [email protected]
Параметр CABAC формата : Да
Параметр ReFrames формата : 14 кадров
Идентификатор кодека : V_MPEG4/ISO/AVC
Продолжительность : 1 ч. 35 м.
Битрейт : 1713 Кбит/сек
Ширина : 720 пикселей
Высота : 560 пикселей
Соотношение сторон : 1,85:1
Режим частоты кадров : Постоянный
Частота кадров : 25,000 кадров/сек
Цветовое пространство : YUV
Субдискретизация насыщенности : 4:2:0
Битовая глубина : 8 бит
Тип развёртки : Прогрессивная
Бит/(Пиксели*Кадры) : 0.170
Размер потока : 1,12 Гбайт (77%)
Заголовок : Заяц Ватанена / Le lievre de Vatanen DVDRip by SC Kosmos
Библиотека кодирования : x264 core 128 r2216 198a7ea
Настройки программы : cabac=1 / ref=14 / deblock=1:-2:-2 / analyse=0x3:0x112 / me=umh / subme=10 / psy=1 / psy_rd=1.00:0.15 / mixed_ref=1 / me_range=32 / chroma_me=1 / trellis=2 / 8x8dct=1 / cqm=0 / deadzone=21,11 / fast_pskip=1 / chroma_qp_offset=-3 / threads=12 / lookahead_threads=2 / sliced_threads=0 / nr=0 / decimate=1 / interlaced=0 / bluray_compat=0 / constrained_intra=0 / bframes=12 / b_pyramid=2 / b_adapt=1 / b_bias=0 / direct=3 / weightb=1 / open_gop=0 / weightp=1 / keyint=250 / keyint_min=25 / scenecut=40 / intra_refresh=0 / rc=2pass / mbtree=0 / bitrate=1713 / ratetol=1.0 / qcomp=0.60 / qpmin=0 / qpmax=69 / qpstep=4 / cplxblur=20.0 / qblur=0.5 / ip_ratio=1.40 / pb_ratio=1.30 / aq=1:1.00 / zones=128860,134096,b=0.27
Язык : French
Default : Нет
Forced : Нет
Основные цвета : BT.601 PAL
Характеристики трансфера : BT.470 System B, BT.470 System G
Коэффициенты матрицы : BT.601

Аудио
Идентификатор : 2
Формат : AC-3
Формат/Информация : Audio Coding 3
Расширение режима : CM (complete main)
Параметр Endianness формата : Big
Идентификатор кодека : A_AC3
Продолжительность : 1 ч. 35 м.
Вид битрейта : Постоянный
Битрейт : 448 Кбит/сек
Каналы : 6 каналов
Расположение каналов : Front: L C R, Side: L R, LFE
Частота : 48,0 КГц
Битовая глубина : 16 бит
Метод сжатия : С потерями
Размер потока : 307 Мбайт (21%)
Заголовок : MV
78481c5c0a61451adbf9e679da1297019ea09bd7Заяц Ватанена / Le lievre de Vatanen (Марк Ривьер, фэнтези, драма, 2006) [DVDRip-AVC, Профессиональный (многоголосый, закадровый)] Заяц Ватанена / Le lievre de Vatanen (Марк Ривьер, фэнтези, драма, 2006) [DVDRip-AVC, Профессиональный (многоголосый, закадровый)] " />

Аплоадер: Админ, дата: 22-10-2012, 05:02, торрент скачан: 359 раз

Понравилась раздача? Посмотрите эти:
  • Мэрайа Мунди и шкатулка Мидаса / The Adventurer: The Curse of the Midas Box ...
  • Погнали! / Getaway (Кортни Соломон, боевик, криминал, 2013) [BDRip 1080p, П ...
  • Погнали! / Getaway (Кортни Соломон, боевик, криминал, 2013) [BDRip-AVC, Про ...
  • 11.6 / 11.6 (Филипп Годо, Драма, триллер, криминал, 2013) [BDRip-AVC, Профе ...
  • Мэрайа Мунди и шкатулка Мидаса / The Adventurer: The Curse of the Midas Box ...
  • Интимные места (Наталья Меркулова, Алексей Чупов, драма, мелодрама, 2013) [ ...
  • Война миров Z / World War Z [Theatrical Cut] (Марк Форстер, ужасы, фантасти ...
  • Незнакомец внутри / The Stranger Within (Adam Neutzsky-Wulff, триллер, 2013 ...
  • Повар для Президента / Les saveurs du Palais (Кристиан Венсан, комедия, био ...
  • Летучий отряд Скотланд-Ярда / The Sweeney (Ник Лав, Боевик, драма, криминал ...
  • Залив / The Bay (Барри Левинсон, Ужасы, фантастика, триллер, 2012) [BDRip-A ...
  • Порочные игры / Stoker (Пак Чхан Ук, Триллер, драма, детектив, 2013) [BDRip ...
  • Голливудский мусор / Garbage (Филипп Волкен, драма, комедия, 2013) [HDTVRip ...
  • Рикошет / Ricochet (Ник Гомез, драма, детектив, 2011) [BDRip-AVC, Профессио ...
  • Убей ради меня / Kill for Me (Майкл Гринспен, триллер, драма, 2013) [DVDRip ...
  • Суррогат / The Sessions (Бен Луин, Драма, 2012) [BDRip-AVC, Профессиональны ...
  • Чемпионат Англии 2012-2013 / 25-й тур / Обзор / Суббота / BBC Sport [2013 г ...
  • Иностранный легион / La cité (Ким Нгуйен / Kim Nguyen, драма, 2010) [DVDRip ...
  • Шёлк / Gui si (Чау-Бин Су, ужасы, фантастика, триллер, драма, 2006) [DVDRip ...
  • Финишная прямая / La ligne droite (Режис Варнье, драма, спорт, 2011) [HDRip ...
  • Эд Вуд / Ed Wood (Тим Бёртон, драма, комедия, биография, 1994) [BDRip-AVC, ...
  • Цель жизни /Lyaksha (Фархан Ахтар, мелодрама, 2004) [DVDRip, Многоголосый ...
  • День учителя (Сергей Мокрицкий, драма, 2012) [DVDRip-AVC, Не требуется]
  • Павшая империя / Hirokin (Алехо Мо-Сан, фантастика, боевик, драма, приключе ...
  • Заяц Ватанена / Le lievre de Vatanen (Марк Ривьер, Фэнтези, драма, 2006) [D ...
  • Информация
    Посетители, находящиеся в группе Гости, не могут оставлять комментарии к данной публикации.