вход на сайт

Имя пользователя :
Пароль :

Восстановление пароля Регистрация
Параллельные миры / Upside Down (Хуан Диего Соланас, Фэнтези, мелодрама, 2012) [BDRip-AVC, Дубляж]
Рейтинг:
(голосов: 1)



[img]{THEME}/images/logopost.png[/img]



Параллельные миры / Upside Down
«Упасть, чтобы взлететь»


Год выпуска: 2012
Страна: Канада, Франция
Производство: Jouror Productions, Onyx Films, Studio 37, Transfilm
Жанр: Фэнтези, мелодрама

Режиссёр: Хуан Диего Соланас
В ролях: Кирстен Данст, Джим Стёрджесс, Стелла Маив, Нил Напье, Джэйн Хейтмейер, Холли ОБрайэн, Ларри Дэй, Агнешка Вроновска, Джон МакЛарен, Дон Джордан...

Перевод: Дубляж
Субтитры: Отсутствуют

Описание: Однажды, несколько тысяч лет тому назад, две планеты притянулись друг к другу. Там правили мир и гармония. Но стоило верхнему миру обрести уверенность и власть, как между планетами началось противостояние. Казалось, ничто не может примирить параллельные миры.
Она - дочь президента верхнего мира. Эта хрупкая девушка с сильным характером и не подозревала, что душа ее способна любить. Он - ее половина. Их встреча была предопределена свыше, их судьбы переплелись воедино. Сможет ли Он, вопреки законам физики своего мира, быть вместе со своей любимой?



Качество: BDRip-AVC | Сэмпл
Продолжительность:01:47:50 час.

Формат: MKV
Видео кодек: x264
Аудио кодек: AC3
Видео: 1024x460 (2,226), 23,976 fps, x264 ~1 539 kbps avg, 0.136 bit/pixel
Аудио: 48 kHz, AC3 Dolby Digital, 3/2 (L,C,R,l,r) + LFE ch, ~384 kbps

Дата премьеры (мир): 22 августа 2012
Дата премьеры (РФ): 23 августа 2012, «Люксор»

MediaInfo ▼Общее
Уникальный идентификатор : 236650471187823158411318787097132158091 (0xB209390EC15A2FDCA7972247F6D64C8B)
Полное имя : D:Upside Down.2012.BDRip-AVC.mkv
Формат : Matroska
Версия формата : Version 2
Размер файла : 1,44 Гбайт
Продолжительность : 1 ч. 47 м.
Общий поток : 1918 Кбит/сек
Название фильма : Параллельные миры / Upside Down (2012) BDRip-AVC rip by Rulya74
Дата кодирования : UTC 2012-09-28 13:40:49
Программа кодирования : mkvmerge v5.7.0 (The Whirlwind) built on Jul 8 2012 20:08:51
Библиотека кодирования : libebml v1.2.3 + libmatroska v1.3.0

Видео
Идентификатор : 1
Формат : AVC
Формат/Информация : Advanced Video Codec
Профиль формата : [email protected]
Параметр CABAC формата : Да
Параметр ReFrames формата : 8 кадров
Идентификатор кодека : V_MPEG4/ISO/AVC
Продолжительность : 1 ч. 47 м.
Битрейт : 1539 Кбит/сек
Ширина : 1024 пикселя
Высота : 460 пикселей
Соотношение сторон : 2,226
Частота кадров : 23,976 кадра/сек
Цветовое пространство : YUV
Субдискретизация насыщенности : 4:2:0
Битовая глубина : 8 бит
Тип развёртки : Прогрессивная
Бит/(Пиксели*Кадры) : 0.136
Размер потока : 1,13 Гбайт (78%)
Библиотека кодирования : x264 core 128 r2216 198a7ea
Настройки программы : cabac=1 / ref=8 / deblock=1:-1:-1 / analyse=0x3:0x113 / me=umh / subme=9 / psy=1 / psy_rd=1.00:0.07 / mixed_ref=1 / me_range=32 / chroma_me=1 / trellis=2 / 8x8dct=1 / cqm=0 / deadzone=21,11 / fast_pskip=0 / chroma_qp_offset=-3 / threads=15 / lookahead_threads=2 / sliced_threads=0 / nr=0 / decimate=1 / interlaced=0 / bluray_compat=0 / constrained_intra=0 / bframes=7 / b_pyramid=2 / b_adapt=2 / b_bias=0 / direct=3 / weightb=1 / open_gop=0 / weightp=2 / keyint=240 / keyint_min=22 / scenecut=40 / intra_refresh=0 / rc=2pass / mbtree=0 / bitrate=1539 / ratetol=1.0 / qcomp=0.60 / qpmin=10 / qpmax=51 / qpstep=4 / cplxblur=20.0 / qblur=0.5 / ip_ratio=1.40 / pb_ratio=1.30 / aq=2:1.00
Default : Да
Forced : Нет

Аудио
Идентификатор : 2
Формат : AC-3
Формат/Информация : Audio Coding 3
Расширение режима : CM (complete main)
Идентификатор кодека : A_AC3
Продолжительность : 1 ч. 47 м.
Вид битрейта : Постоянный
Битрейт : 384 Кбит/сек
Каналы : 6 каналов
Расположение каналов : Front: L C R, Side: L R, LFE
Частота : 48,0 КГц
Битовая глубина : 16 бит
Метод сжатия : С потерями
Размер потока : 296 Мбайт (20%)
Заголовок : Дубляж
Язык : Russian
Default : Да
Forced : Нет





581e90e5871b4f0503d67562c157e757ee6d0774Параллельные миры / Upside Down (Хуан Диего Соланас, Фэнтези, мелодрама, 2012) [BDRip-AVC, Дубляж] Параллельные миры / Upside Down (Хуан Диего Соланас, Фэнтези, мелодрама, 2012) [BDRip-AVC, Дубляж] " />

Аплоадер: Админ, дата: 28-09-2012, 22:55, торрент скачан: 359 раз

Понравилась раздача? Посмотрите эти:
  • [3D] Параллельные миры / Upside Down (Хуан Диего Соланас, Фэнтези, мелодрам ...
  • [3D] Параллельные миры / Upside Down (Хуан Диего Соланас, Фэнтези, мелодрам ...
  • [3D] Параллельные миры / Upside Down (Хуан Диего Соланас, Фэнтези, мелодрам ...
  • Параллельные миры / Upside Down (Хуан Диего Соланас, фэнтези, мелодрама, 20 ...
  • [3D] Параллельные миры 3D / Upside Down 3D (Хуан Диего Соланас, Фэнтези, ме ...
  • Толстяк на ринге / Here Comes the Boom (Фрэнк Корачи, Боевик, комедия, 2012 ...
  • Параллельные миры / Upside Down (Хуан Диего Соланас, Фэнтези, мелодрама, 20 ...
  • Прометей / Prometheus (Ридли Скотт, Фантастика, триллер, приключения, 2012) ...
  • Параллельные миры / Upside Down (Хуан Диего Соланас, Фэнтези, мелодрама, 20 ...
  • Медальон / Stolen (Саймон Уэст, Боевик, триллер, 2012) [BDRip-AVC, Дубляж]
  • Третий лишний / Ted (Сет МакФарлейн, Фэнтези, комедия, 2012) [BDRip-AVC, Ду ...
  • Параллельные миры / Upside Down (Хуан Диего Соланас, драма, мелодрама, фэн ...
  • Помогите Стать Отцом / Not Suitable For Children (Питер Темплмен, Мелодрама ...
  • Параллельные миры / Upside Down (Хуан Диего Соланас, Фэнтези, мелодрама, 20 ...
  • Параллельные миры / Upside Down (Хуан Диего Соланас, Фэнтези, мелодрама, 20 ...
  • Параллельные миры / Upside Down (Хуан Диего Соланас, Фэнтези, мелодрама, 20 ...
  • Параллельные миры / Upside Down (Хуан Диего Соланас, фэнтези, мелодрама, 20 ...
  • [iPhone, iPod] Параллельные миры / Upside Down (Хуан Диего Соланас, фэнтези ...
  • Параллельные миры / Upside Down (Хуан Диего Соланас, Фэнтези, мелодрама, 20 ...
  • Параллельные миры / Upside Down (Хуан Диего Соланас, Фэнтези, мелодрама, 20 ...
  • Параллельные миры / Upside Down (Хуан Диего Соланас, фэнтези, мелодрама, 20 ...
  • [PSP] Параллельные миры / Upside Down (Хуан Диего Соланас, Драма, мелодрама ...
  • Параллельные миры / Upside Down (Хуан Диего Соланас, Фэнтези, мелодрама, 20 ...
  • Параллельные миры / Upside Down (Хуан Диего Соланас, Драма, Мелодрама, Фэнт ...
  • Параллельные миры / Upside Down (Хуан Диего Соланас, Драма, Мелодрама, Фэнт ...
  • Информация
    Посетители, находящиеся в группе Гости, не могут оставлять комментарии к данной публикации.