вход на сайт

Имя пользователя :
Пароль :

Восстановление пароля Регистрация
Белоснежка и охотник [Театральная версия] / Snow White and the Huntsman [Theatrical Cut] (Руперт Сандерс, Фэнтези, боевик, драма, приключения, 2012) [BDRip-AVC, Дубляж, Sub]
Рейтинг:
(голосов: 1)



[img]{THEME}/images/logopost.png[/img]



Белоснежка и охотник [Театральная версия]/ Snow White and the Huntsman [Theatrical Cut]
«Лишь одна будет править»


Год выпуска: 2012
Страна: США
Производство: Roth Films, Universal Pictures
Жанр: Фэнтези, боевик, драма, приключения

Режиссёр: Руперт Сандерс
В ролях: Кристен Стюарт, Крис Хемсворт, Шарлиз Терон, Сэм Клафлин, Сэм Спруэлл, Иэн МакШейн, Боб Хоскинс, Рэй Уинстон, Ник Фрост, Эдди Марсан

Перевод: Дубляж
Субтитры: Русские, английские

Описание: Тьма приближается. Она прячется в лесах, спускается с гор, застилает небо. Никто не укроется от магического зеркала Королевы, живущей в неприступном замке, охраняемом бесчисленной армией. Но над Белоснежкой злые чары не властны. И тогда Королева отправляет Охотника, чтобы он принес ей сердце соперницы. Но очарованный Белоснежкой, он встает на ее сторону. Грядет великая битва. Лишь одна будет править.Качество: BDRip-AVC
Продолжительность: 02:07:15 час.


Формат: MKV
Видео кодек: x264
Аудио кодек: AC3
Видео: 944x402 (2,35:1), 23,976 fps, x264 ~2 000 kbps avg, 0.220 bit/pixel
Аудио: 48 kHz, AC3 Dolby Digital, 3/2 (L,C,R,l,r) + LFE ch, ~448 kbps -(Дубляж)


Дата премьеры (мир): 30 мая 2012
Дата премьеры (РФ): 14 июня 2012, «UPI»

MediaInfo ▼General
Unique ID : 251916354621686037986355692033399669853 (0xBD855338BFDC0050BC356479AE81445D)
Complete name : D:/Belosnezhka.i.ohotnik.Teatralnaja.versija.2012.x264.BDRip.(AVC).fanatus.mkv
Format : Matroska
Format version : Version 2
File size : 2.18 GiB
Duration : 2h 7mn
Overall bit rate : 2 449 Kbps
Movie name : Snow White and the Huntsman (2012) - fanatus
Encoded date : UTC 2012-09-24 09:41:18
Writing application : mkvmerge v3.4.0 (Rapunzel) сборка от May 15 2010 09:38:20
Writing library : libebml v0.8.0 + libmatroska v0.9.0

Video
ID : 1
Format : AVC
Format/Info : Advanced Video Codec
Format profile : [email protected]
Format settings, CABAC : Yes
Format settings, ReFrames : 12 frames
Codec ID : V_MPEG4/ISO/AVC
Duration : 2h 7mn
Bit rate : 2 000 Kbps
Width : 944 pixels
Height : 402 pixels
Display aspect ratio : 2.35:1
Frame rate : 23.976 fps
Color space : YUV
Chroma subsampling : 4:2:0
Bit depth : 8 bits
Scan type : Progressive
Bits/(Pixel*Frame) : 0.220
Stream size : 1.73 GiB (80%)
Title : Snow White and the Huntsman (2012)
Writing library : x264 core 128 r2216 198a7ea
Encoding settings : cabac=1 / ref=12 / deblock=1:-3:-3 / analyse=0x3:0x113 / me=umh / subme=10 / psy=1 / psy_rd=1.00:0.05 / mixed_ref=1 / me_range=48 / chroma_me=1 / trellis=2 / 8x8dct=1 / cqm=0 / deadzone=21,11 / fast_pskip=0 / chroma_qp_offset=-3 / threads=16 / lookahead_threads=2 / sliced_threads=0 / nr=0 / decimate=0 / interlaced=0 / bluray_compat=0 / constrained_intra=0 / bframes=13 / b_pyramid=2 / b_adapt=2 / b_bias=0 / direct=3 / weightb=1 / open_gop=0 / weightp=2 / keyint=240 / keyint_min=24 / scenecut=40 / intra_refresh=0 / rc_lookahead=240 / rc=2pass / mbtree=1 / bitrate=2000 / ratetol=1.0 / qcomp=0.65 / qpmin=0 / qpmax=69 / qpstep=4 / cplxblur=20.0 / qblur=0.5 / ip_ratio=1.40 / aq=2:0.90 / zones=173139,183054,q=37
Language : English
Default : Yes
Forced : No

Audio
ID : 2
Format : AC-3
Format/Info : Audio Coding 3
Mode extension : CM (complete main)
Format settings, Endianness : Big
Codec ID : A_AC3
Duration : 2h 7mn
Bit rate mode : Constant
Bit rate : 448 Kbps
Channel(s) : 6 channels
Channel positions : Front: L C R, Side: L R, LFE
Sampling rate : 48.0 KHz
Bit depth : 16 bits
Compression mode : Lossy
Stream size : 408 MiB (18%)
Title : Dub
Language : Russian
Default : Yes
Forced : Yes

Text #1
ID : 3
Format : UTF-8
Codec ID : S_TEXT/UTF8
Codec ID/Info : UTF-8 Plain Text
Language : Russian
Default : No
Forced : No

Text #2
ID : 4
Format : UTF-8
Codec ID : S_TEXT/UTF8
Codec ID/Info : UTF-8 Plain Text
Language : English
Default : No
Forced : No

Menu
00:
a37f9795ab5cb3bb56ea8d9f7ec5f6b98fd64b52Белоснежка и охотник [Театральная версия] / Snow White and the Huntsman [Theatrical Cut] (Руперт Сандерс, Фэнтези, боевик, драма, приключения, 2012) [BDRip-AVC, Дубляж, Sub] Белоснежка и охотник [Театральная версия] / Snow White and the Huntsman [Theatrical Cut] (Руперт Сандерс, Фэнтези, боевик, драма, приключения, 2012) [BDRip-AVC, Дубляж, Sub] " />

Аплоадер: Админ, дата: 25-09-2012, 02:23, торрент скачан: 359 раз

Понравилась раздача? Посмотрите эти:
  • Белоснежка и охотник / Snow White and the Huntsman (Руперт Сандерс, фэнтези ...
  • Белоснежка и охотник [Расширенная версия] / Snow White and the Huntsman [UN ...
  • Белоснежка и охотник [Расширенная версия] / Snow White and the Huntsman [UN ...
  • Белоснежка и охотник / Snow White and the Huntsman (Руперт Сандерс, фэнтези ...
  • Белоснежка и охотник [Расширенная версия] / Snow White and the Huntsman [UN ...
  • Белоснежка и охотник [Расширенная версия] / Snow White and the Huntsman [UN ...
  • Белоснежка и охотник [Театральная версия] / Snow White and the Huntsman [Th ...
  • Белоснежка и охотник [Расширенная версия] / Snow White and the Huntsman [Ex ...
  • Белоснежка и охотник [Расширенная версия] / Snow White and the Huntsman [Ex ...
  • Белоснежка и охотник [Расширенная версия] / Snow White and the Huntsman [Ex ...
  • Белоснежка и охотник [Расширенная версия] / Snow White and the Huntsman [U ...
  • Белоснежка и охотник [Расширенная версия] / Snow White and the Huntsman [UN ...
  • Белоснежка и охотник [Театральная версия] / Snow White and the Huntsman [Th ...
  • Белоснежка и охотник [Расширенная версия] / Snow White and the Huntsman [UN ...
  • Белоснежка и охотник [Расширенная версия] / Snow White and the Huntsman [UN ...
  • Белоснежка и охотник [Театральная версия] / Snow White and the Huntsman [Th ...
  • Белоснежка и охотник [Театральная версия] / Snow White and the Huntsman [Th ...
  • [Phone, iPod] Белоснежка и охотник / Snow White and the Huntsman (Руперт Са ...
  • Белоснежка и охотник [Расширенная версия] / Snow White and the Huntsman [UN ...
  • Белоснежка и охотник [Расширенная версия] / Snow White and the Huntsman [Ex ...
  • Белоснежка и охотник [Расширенная версия] / Snow White and the Huntsman [UN ...
  • Белоснежка и охотник [Театральная версия] / Snow White and the Huntsman [Th ...
  • Белоснежка и охотник / Snow White and the Huntsman (Руперт Сандерс, фэнтези ...
  • Белоснежка и охотник [Театральная версия] / Snow White and the Huntsman [Th ...
  • Белоснежка и охотник / Snow White and the Huntsman (Руперт Сандерс / Rupert ...
  • Информация
    Посетители, находящиеся в группе Гости, не могут оставлять комментарии к данной публикации.