вход на сайт

Имя пользователя :
Пароль :

Восстановление пароля Регистрация
Мост в Терабитию / Bridge to Terabithia (Габор Ксупо, фэнтези, драма, приключения, семейный, 2007)[BDRip-AVC, Профессиональный (дублированный) + Original + Sub]
Рейтинг:
(голосов: 1)



[img]{THEME}/images/logopost.png[/img]



Мост в Терабитию / Bridge to Terabithia

Год выпуска: 2007
Страна: США
Производство: Hal Lieberman Company
Жанр: фэнтези, драма, приключения, семейный

Режиссёр: Габор Чупо / Gabor Csupo
В ролях: Джош Хатчерсон, АннаCофия Робб, Зуи Дешанель, Роберт Патрик, Бэйли Мэдисон, Кейт Батлер, Девон Вуд, Эмма Фентон, Лэтэм Гейнс

Перевод: Профессиональный (дублированный) + Original
Субтитры: русские, английские (SRT)

Описание: Надежды ученика пятого класса Джесса Аарона стать самым быстрым бегуном в классе разбились после того, как новичок Лесли Берк одержала победу в соревнованиях.

Оснований для враждебности по отношению друг к друг у Джесса и Лесли более чем достаточно, и тем не менее между ними завязывается дружба. Как тут не подружиться, если приходится быть королем и королевой в обнаруженном в лесу волшебном царстве?



Качество: BDRip-AVC
Продолжительность: 01:35:32 час.

Формат: MKV
Видео кодек: AVC
Аудио кодек: AC3
Видео: 1280x688 (1.85:1), 23.976 fps, H264 ~3 573 kbps avg, 0.169 bit/pixel
Аудио 1: 48 kHz, AC3, 3/2 (L,C,R,l,r) + LFE ch, ~384.00 kbps avg
Аудио 2: 48 kHz, AC3, 3/2 (L,C,R,l,r) + LFE ch, ~384.00 kbps avg

"MI" ▼General
Unique ID : 196912654123301513607771539241366153762 (0x9423FF694C830449AC71F55075A36A22)
Complete name : Bridge_to_Terabithia.2007.BDRip-AVC.mkv
Format : Matroska
Format version : Version 2
File size : 2.90 GiB
Duration : 1h 35mn
Overall bit rate : 4 342 Kbps
Encoded date : UTC 2012-06-03 08:47:32
Writing application : mkvmerge v5.6.0 (Kenya Kane) built on May 27 2012 16:44:04
Writing library : libebml v1.2.3 + libmatroska v1.3.0
Video
ID : 1
Format : AVC
Format/Info : Advanced Video Codec
Format profile : [email protected]
Format settings, CABAC : Yes
Format settings, ReFrames : 9 frames
Codec ID : V_MPEG4/ISO/AVC
Duration : 1h 35mn
Bit rate : 3 573 Kbps
Width : 1 280 pixels
Height : 688 pixels
Display aspect ratio : 1.85:1
Frame rate : 23.976 fps
Color space : YUV
Chroma subsampling : 4:2:0
Bit depth : 8 bits
Scan type : Progressive
Bits/(Pixel*Frame) : 0.169
Stream size : 2.33 GiB (80%)
Title : Bridge to Terabithia
Writing library : x264 core 120 r2164 da19765
Encoding settings : cabac=1 / ref=9 / deblock=1:-2:-1 / analyse=0x3:0x113 / me=umh / subme=10 / psy=1 / psy_rd=1.00:0.00 / mixed_ref=1 / me_range=32 / chroma_me=1 / trellis=2 / 8x8dct=1 / cqm=0 / deadzone=21,11 / fast_pskip=1 / chroma_qp_offset=-4 / threads=6 / sliced_threads=0 / nr=0 / decimate=1 / interlaced=0 / bluray_compat=0 / constrained_intra=0 / bframes=9 / b_pyramid=2 / b_adapt=2 / b_bias=0 / direct=2 / weightb=1 / open_gop=0 / weightp=2 / keyint=240 / keyint_min=23 / scenecut=40 / intra_refresh=0 / rc_lookahead=40 / rc=2pass / mbtree=1 / bitrate=3573 / ratetol=1.0 / qcomp=0.60 / qpmin=10 / qpmax=51 / qpstep=4 / cplxblur=20.0 / qblur=0.5 / ip_ratio=1.40 / aq=1:1.00
Default : Yes
Forced : No
Audio #1
ID : 2
Format : AC-3
Format/Info : Audio Coding 3
Mode extension : CM (complete main)
Format settings, Endianness : Big
Codec ID : A_AC3
Duration : 1h 35mn
Bit rate mode : Constant
Bit rate : 384 Kbps
Channel(s) : 6 channels
Channel positions : Front: L C R, Side: L R, LFE
Sampling rate : 48.0 KHz
Bit depth : 16 bits
Compression mode : Lossy
Stream size : 262 MiB (9%)
Title : Bridge to Terabithia: Original English
Language : English
Default : No
Forced : No
Audio #2
ID : 3
Format : AC-3
Format/Info : Audio Coding 3
Mode extension : CM (complete main)
Format settings, Endianness : Big
Codec ID : A_AC3
Duration : 1h 35mn
Bit rate mode : Constant
Bit rate : 384 Kbps
Channel(s) : 6 channels
Channel positions : Front: L C R, Side: L R, LFE
Sampling rate : 48.0 KHz
Bit depth : 16 bits
Compression mode : Lossy
Stream size : 262 MiB (9%)
Title : Bridge to Terabithia: Dub Russian
Language : Russian
Default : Yes
Forced : No
Text #1
ID : 4
Format : UTF-8
Codec ID : S_TEXT/UTF8
Codec ID/Info : UTF-8 Plain
46a76cb9f25d951feb3e3e5d8ab07d7dfb0bfd83Мост в Терабитию / Bridge to Terabithia (Габор Ксупо, фэнтези, драма, приключения, семейный, 2007)[BDRip-AVC, Профессиональный (дублированный) + Original + Sub] Мост в Терабитию / Bridge to Terabithia (Габор Ксупо, фэнтези, драма, приключения, семейный, 2007)[BDRip-AVC, Профессиональный (дублированный) + Original + Sub] " />

Аплоадер: Админ, дата: 17-06-2012, 17:54, торрент скачан: 359 раз

Понравилась раздача? Посмотрите эти:
  • Два ствола / 2 Guns (Бальтасар Кормакур, боевик, триллер, драма, комедия, к ...
  • Грязь / Filth (Джон С. Бейрд, криминал, драма, комедия, 2013) [BDRip-AVC, ...
  • Пастырь / Priest (Скотт Чарльз Стюарт, ужасы, фантастика, боевик, триллер, ...
  • Хроника / Chronicle (Джошуа Транк, фантастика, боевик, триллер, драма, 2012 ...
  • Мост в Терабитию /Bridge to Terabithia (Габор Чупо, фэнтези, драма, приключ ...
  • Зубная фея 2 / Tooth Fairy 2 (Алекс Замм, комедия, семейный, 2012) [BDRip 7 ...
  • Мост в Терабитию / Bridge to Terabithia (Габор Ксупо) [2007. Детский, Прикл ...
  • [EN] Мост в Терабитию/ Bridge to Terabithia (Габор Чупо, фэнтези, драма, п ...
  • Мост в Терабитию / Bridge to Terabithia (Габор Чупо, Фэнтези, драма, приклю ...
  • Хранитель времени / Hugo (Мартин Скорсезе, Драма, 2011) [BDRip-AVC, Професс ...
  • Персонаж / Stranger Than Fiction (Марк Форстер, Комедия, драма, фантастика, ...
  • Мармадюк / Marmaduke (Том Дей, комедия, семейный, 2010) [BDRip-AVC, Дублиро ...
  • Бедная богатая девочка / Young Adult (Джейсон Райтман, драма, комедия, 2011 ...
  • Репортаж из преисподней / [REC] 2 (Жауме Балагуэро, Пако Пласа, ужасы, трил ...
  • Ведьмина гора / Race to Witch Mountain (Энди Фикмен / Andy Fickman, фантаст ...
  • Робин Гуд [Режиссёрская версия] / Robin Hood [Directors Cut] (Ридли Скотт / ...
  • Центурион / Centurion (Нил Маршалл / Neil Marshall, Боевик, триллер, драма, ...
  • Странная жизнь Тимоти Грина / The Odd Life of Timothy Green (Питер Хеджес, ...
  • Закон доблести / Act of Valor (Майк МакКой, Скотт Во, боевик, триллер, прик ...
  • [3D] Гарри Поттер и Дары Смерти: часть 2 / Harry Potter and the Deathly Hal ...
  • Чаббчаббы спасают Рождество / The Chubbchubbs Save Xmas (Коуди Камерон, мул ...
  • Мачо и ботан / 21 Jump Street (Фил Лорд, Крис Миллер, боевик, комедия, 2012 ...
  • Mylene Farmer / Du Temps [2011, Pop, HDTVRip]
  • Mylene Farmer / Bleu Noir [2011, Pop, HDTVRip]
  • Мост в Терабитию / Bridge to Terabithia (Габор Ксупо, Детский, Приключения, ...
  • Информация
    Посетители, находящиеся в группе Гости, не могут оставлять комментарии к данной публикации.