вход на сайт

Имя пользователя :
Пароль :

Восстановление пароля Регистрация
Ева: Искусственный разум / Eva (Кике Маильо, фантастика, фэнтези, драма, 2011) [HDRip-AVC, Профессиональный (многоголосый закадровый)]
Рейтинг:
(голосов: 1)



[img]{THEME}/images/logopost.png[/img]



Ева: Искусственный разум / Eva

Год выпуска: 2011
Страна: Испания
Производство: Escandalo Films S.L., Ran Entertainment, Saga-Productions
Жанр: фантастика, фэнтези, драма

Режиссёр: Кике Маильо / Kike Maillo
В ролях: Даниэль Брюль, Альберто Эмманн, Марта Этура, Сара Роза, Анн Кановас, Клаудия Вега, Джорди Диаз

Перевод: Профессиональный (многоголосый закадровый)
Субтитры: русские, английские

Описание:
Алекс, известный инженер в сфере кибернетики, возвращается в Санта-Ирину, чтобы заняться необычным проектом для факультета Робототехники своего университета ― созданием робота-ребенка. В течение десяти лет, пока его не было в городе, жизнь для его брата Дэвида и девушки Ланы шла своим чередом: теперь они живут вместе и у них есть дочь Ева. Между Алексом и Евой сразу налаживаются хорошие отношения, и так получается, что Ева самым неожиданным образом меняет подход Алекса к его разработкам. Для них начинается путешествие, которое обещает интригующую кульминацию.
Качество: HDRip-AVC |Рип с BDRip 1080p|
Продолжительность: 01:34:43

Формат:MKV
Видео кодек: AVC
Аудио кодек: AС3
Видео: 1120x476 (2.35:1), 24.000 fps, AVC, ~1814 Kbps, 0.142 bits/pixel
Аудио #1: 48 kHz, AC3 Dolby Digital, 3/2 (L,C,R,l,r) + LFE ch, ~384.00 kbps avg |Многоголосый закадровый|
Аудио #2:48 kHz, AC3 Dolby Digital, 3/2 (L,C,R,l,r) + LFE ch, ~384.00 kbps avg |Оригинал| (отдельным файлом)
"MediaInfo" ▼General
Unique ID : 179142952875018516982508024264448621151 (0x86C5AD7F80D3FCB1BBB2251599D53A5F)
Complete name : Eva-isskustvennyi razum.chopper887.mkv
Format : Matroska
Format version : Version 2
File size : 1.46 GiB
Duration : 1h 34mn
Overall bit rate : 2 200 Kbps
Movie name : Eva-isskustvennyi razum.chopper887
Encoded date : UTC 2012-04-26 15:54:05
Writing application : mkvmerge v4.8.0 (I Got The...) сборка от May 24 2011 03:12:58
Writing library : libebml v1.2.0 + libmatroska v1.1.0

Video
ID : 1
Format : AVC
Format/Info : Advanced Video Codec
Format profile : [email protected]
Format settings, CABAC : Yes
Format settings, ReFrames : 10 frames
Codec ID : V_MPEG4/ISO/AVC
Duration : 1h 34mn
Bit rate : 1 814 Kbps
Width : 1 120 pixels
Height : 476 pixels
Display aspect ratio : 2.35:1
Frame rate : 24.000 fps
Color space : YUV
Chroma subsampling : 4:2:0
Bit depth : 8 bits
Scan type : Progressive
Bits/(Pixel*Frame) : 0.142
Stream size : 1.17 GiB (81%)
Title : Eva-isskustvennyi razum.chopper887
Writing library : x264 core 120 r2164 da19765
Encoding settings : cabac=1 / ref=10 / deblock=1:-2:-1 / analyse=0x3:0x133 / me=umh / subme=11 / psy=1 / psy_rd=0.95:0.05 / mixed_ref=1 / me_range=32 / chroma_me=1 / trellis=2 / 8x8dct=1 / cqm=0 / deadzone=21,11 / fast_pskip=0 / chroma_qp_offset=-3 / threads=12 / sliced_threads=0 / nr=0 / decimate=1 / interlaced=0 / bluray_compat=0 / constrained_intra=0 / bframes=5 / b_pyramid=2 / b_adapt=2 / b_bias=0 / direct=3 / weightb=1 / open_gop=0 / weightp=2 / keyint=240 / keyint_min=24 / scenecut=40 / intra_refresh=0 / rc_lookahead=80 / rc=2pass / mbtree=1 / bitrate=1814 / ratetol=1.0 / qcomp=0.60 / qpmin=10 / qpmax=51 / qpstep=4 / cplxblur=20.0 / qblur=0.5 / ip_ratio=1.40 / aq=1:1.00
Language : English
Default : Yes
Forced : No

Audio
ID : 2
Format : AC-3
Format/Info : Audio Coding 3
Mode extension : CM (complete main)
Codec ID : A_AC3
Duration : 1h 34mn
Bit rate mode : Constant
Bit rate : 384 Kbps
Channel(s) : 6 channels
Channel positions : Front: L C R, Side: L R, LFE
Sampling rate : 48.0 KHz
Bit depth : 16 bits
Compression mode : Lossy
Stream size : 260 MiB (17%)
Title : Rus
Default : Yes
Forced : No

Text
ID : 3
Format : UTF-8
Codec ID : S_TEXT/UTF8
Codec ID/Info : UTF-8 Plain Text
Title : Rus
Default : Yes
Forced : No



19cf79d4180c2e89f99fcf44b13342709d215604Ева: Искусственный разум / Eva (Кике Маильо, фантастика, фэнтези, драма, 2011) [HDRip-AVC, Профессиональный (многоголосый закадровый)] Ева: Искусственный разум / Eva (Кике Маильо, фантастика, фэнтези, драма, 2011) [HDRip-AVC, Профессиональный (многоголосый закадровый)] " />

Аплоадер: Админ, дата: 16-06-2012, 17:24, торрент скачан: 359 раз

Понравилась раздача? Посмотрите эти:
  • Спайдервик: Хроники / The Spiderwick Chronicles (Марк С. Уотерс, Фэнтези, п ...
  • Суррогат / The Sessions (Бен Луин, драма, 2012) [BDRip 720p, Профессиональн ...
  • Зубная фея 2 / Tooth Fairy 2 (Алекс Замм, комедия, семейный, 2012) [BDRip 7 ...
  • Убить по расписанию / Ticking Clock (Эрни Барбараш, фантастика, боевик, три ...
  • Властелин измерений / Grande ourse - La cle des possibles (Патрис Сов, фант ...
  • Хранитель времени / Hugo (Мартин Скорсезе, Драма, 2011) [BDRip-AVC, Професс ...
  • Похищенная / A Lonely Place to Die (Джулиан Джилби, триллер, криминал, прик ...
  • Воин / Warrior (Гэвин О’Коннор, боевик, драма, спорт, 2011) [HDRip-AVC, Про ...
  • Курьер / The Courier (Хани Абу-Ассад, боевик, триллер, криминал, 2011) [HDR ...
  • Ева: Искусственный разум / Eva (Кике Маильо, фантастика, фэнтези, драма, 20 ...
  • Искусственный разум / Artificial Intelligence: AI (Стивен Спилберг, фантаст ...
  • Рыжий пес / Red Dog (Крив Стендерс, драма, комедия, семейный, 2011) [BDRip ...
  • Ева: Искусственный разум / Eva (Кике Маильо, Фантастика, 2011) [BDRip 720p, ...
  • Mylene Farmer / Du Temps [2011, Pop, HDTVRip]
  • Mylene Farmer / Bleu Noir [2011, Pop, HDTVRip]
  • Нет мужчин - нет проблем / Without Men (Габриела Тальявини / Gabriela Tagli ...
  • Ева: Искусственный разум / Eva (Кике Маильо, Фантастика, 2011) [DVDRip, Про ...
  • Ева: Искусственный разум / Eva (Кике Маильо, фантастика, фэнтези, драма, 20 ...
  • Ева: Искусственный разум / Eva (Кике Маильо, фантастика, фэнтези, драма, 20 ...
  • Ева: Искусственный разум / Eva (Кике Маильо, фантастика, фэнтези, драма, 20 ...
  • Информация
    Посетители, находящиеся в группе Гости, не могут оставлять комментарии к данной публикации.