вход на сайт

Имя пользователя :
Пароль :

Восстановление пароля Регистрация
Белоснежка: Месть гномов / Mirror Mirror (Тарсем Синх / Tarsus Singh, фэнтези, драма, комедия, приключения, 2012) [BDRip 720, Дублированный]
Рейтинг:
(голосов: 1)



[img]{THEME}/images/logopost.png[/img]



Белоснежка: Месть гномов / Mirror Mirror
«Новые страницы любимой сказки»

Год выпуска: 2012
Страна: США
Производство: Citizen Snow Film Productions, Goldmann Pictures, Misha Films, Rat Entertainment, Relativity Media, Yuk Films
Жанр: фэнтези, драма, комедия, приключения

Режиссёр: Тарсем Синх / Tarsus Singh
В ролях: Джулия Робертс, Лили Коллинз, Арми Хаммер, Шон Бин, Нейтон Лейн, Мэр Уиннингэм, Майкл Лернер, Роберт Эммс, Мартин Клебба, Дэнни Вудберн, Джордан Прентис, Джейсон Кавалье, Ричард Джатрас, Райан Уилсон

Перевод: Дублированный
Субтитры: Отсутствуют

Описание: Злая Королева, мечтающая выйти замуж за красивого и богатого Принца, хитростью выдворяет из дворца Белоснежку и берет власть в свои руки. Но милая девушка не погибла в темном дремучем лесу, а связалась с бандой гномов-разбойников. Вместе они отомстят Злодейке!Дата премьеры (мир): 15 марта 2012
Дата премьеры (РФ): 15 марта 2012, «Парадиз»
Релиз на DVD: 29 мая 2012, «Парадиз Медиа»
Релиз на Blu-Ray: 29 мая 2012, «Парадиз Медиа»"Знаете ли вы, что:" ▼На роль Белоснежки пробовалась Сирша Ронан.
На роль принца рассматривались Алекс Петтифер, Джеймс Холзиер и Джеймс МакЭвой.
Костюмы для фильма разработала японский дизайнер, обладательница премии «Оскар» Эйко Исиока
Качество: BDRip 720
Продолжительность: 01:38:13

Формат: MKV
Видео кодек: x264
Аудио кодек: DTS
Видео: 1280x720 (16:9), 24.000 fps, 3 261 kbps avg,0.147 bit/pixel
Аудио: 48 kHz, 6 channels (Front: L C R, Side: L R, LFE), 1 510 kbps avg | Дублированный
MediaInfo ▼TextGeneral
Unique ID : 204644976551789710084924877841871127787 (0x99F5305739A965CBBA8227AE22EBC4EB)
Complete name : Belosnezhka.Mest.gnomovr.2012.D.BDRip.720p.mkv
Format : Matroska
Format version : Version 2
File size : 3.68 GiB
Duration : 1h 48mn
Overall bit rate : 4 868 Kbps
Movie name : IRONCLUB
Encoded date : UTC 2012-05-29 05:02:29
Writing application : mkvmerge v4.9.1 (Ich will) built on Jul 11 2011 23:53:15
Writing library : libebml v1.2.1 + libmatroska v1.1.1

Video
ID : 1
Format : AVC
Format/Info : Advanced Video Codec
Format profile : [email protected]
Format settings, CABAC : Yes
Format settings, ReFrames : 9 frames
Codec ID : V_MPEG4/ISO/AVC
Duration : 1h 48mn
Bit rate : 3 261 Kbps
Width : 1 280 pixels
Height : 720 pixels
Display aspect ratio : 16:9
Frame rate : 24.000 fps
Color space : YUV
Chroma subsampling : 4:2:0
Bit depth : 8 bits
Scan type : Progressive
Bits/(Pixel*Frame) : 0.147
Stream size : 2.47 GiB (67%)
Title : Mirror Mirror 2012 720p BluRay DTS x264-IRONCLUB
Writing library : x264 core 120 r2164 da19765
Encoding settings : cabac=1 / ref=9 / deblock=1:-3:-3 / analyse=0x3:0x113 / me=umh / subme=10 / psy=1 / psy_rd=1.05:0.05 / mixed_ref=1 / me_range=24 / chroma_me=1 / trellis=2 / 8x8dct=1 / cqm=0 / deadzone=21,11 / fast_pskip=0 / chroma_qp_offset=-4 / threads=12 / sliced_threads=0 / nr=0 / decimate=1 / interlaced=0 / bluray_compat=0 / constrained_intra=0 / bframes=7 / b_pyramid=2 / b_adapt=2 / b_bias=0 / direct=3 / weightb=1 / open_gop=0 / weightp=2 / keyint=230 / keyint_min=23 / scenecut=40 / intra_refresh=0 / rc_lookahead=40 / rc=crf / mbtree=1 / crf=17.5 / qcomp=0.60 / qpmin=10 / qpmax=69 / qpstep=4 / vbv_maxrate=50000 / vbv_bufsize=62500 / crf_max=0.0 / nal_hrd=none / ip_ratio=1.40 / aq=1:1.00
Language : Russian
Default : Yes
Forced : Yes
Matrix coefficients : BT.709-5, BT.1361, IEC 61966-2-4 709, SMPTE RP177

Audio
ID : 2
Format : DTS
Format/Info : Digital Theater Systems
Codec ID : A_DTS
Duration : 1h 48mn
Bit rate mode : Constant
Bit rate : 1 510 Kbps
Channel(s) : 6 channels
Channel positions : Front: L C R, Side: L R, LFE
Sampling rate : 48.0 KHz
Bit depth : 24 bits
Compression mode : Lossy
Stream size : 1.14 GiB (31%)
Title : DTS 5.1 @ 1536 kbps
Language : Russian
Default : Yes
Forced : Yes

Menu
00:00:00.000 : :00:00:00.000
00:08:06.458 : :00:08:06.458
00:18:42.791 : :00:18:42.791
00:26:28.833 : :00:26:28.833
00:29:50.708 : :00:2
6e3e4a048b39cfc9cad3b6ef48f50fede48a3b69Белоснежка: Месть гномов / Mirror Mirror (Тарсем Синх / Tarsus Singh, фэнтези, драма, комедия, приключения, 2012) [BDRip 720, Дублированный] Белоснежка: Месть гномов / Mirror Mirror (Тарсем Синх / Tarsus Singh, фэнтези, драма, комедия, приключения, 2012) [BDRip 720, Дублированный] " />

Аплоадер: Админ, дата: 29-05-2012, 15:18, торрент скачан: 359 раз

Понравилась раздача? Посмотрите эти:
  • Белоснежка: Месть гномов / Mirror Mirror (Тарсем Синх, фэнтези, драма, коме ...
  • Белоснежка: Месть гномов / Mirror Mirror (Тарсем Синх / Tarsus Singh, фэнте ...
  • Белоснежка: Месть гномов / Mirror Mirror (Тарсем Синх / Tarsus Singh, фэнте ...
  • Война Богов: Бессмертные / Immortals (Тарсем Синх / Tarsem Singh, фэнтези, ...
  • Белоснежка: Месть гномов / Mirror Mirror (Тарсем Синх / Tarsus Singh, фэнте ...
  • Белоснежка: Месть гномов / Mirror Mirror (Тарсем Синх / Tarsus Singh, фэнте ...
  • Запределье / The Fall (Тарсем Синх, фэнтези, драма, приключения, 2006) [BDR ...
  • Между / Twixt (Френсис Форд Коппола, ужасы, фэнтези, триллер, 2011) [BDRip ...
  • Девчата (Юрий Чулюкин, мелодрама, комедия, 1961) [BDRip 720p, Не требуется] ...
  • Закон доблести / Act of Valor (Майк МакКой, Скотт Во, боевик, триллер, прик ...
  • Джок / Jock (Дункан МакНили, мультфильм, комедия, приключения, семейный, 20 ...
  • Белоснежка и охотник [Театральная версия] / Snow White and the Huntsman [Th ...
  • Любовь С Препятствиями / Un Bonheur Narrive Jamais Seul (Джеймс Хат, Мелодр ...
  • Третий лишний / Ted (Сет МакФарлейн, Фэнтези, комедия, 2012) [BDRip 720p, Д ...
  • Белоснежка: Месть гномов / Mirror Mirror (Тарсем Синх, фэнтези, драма, коме ...
  • Белоснежка: Месть гномов / Mirror Mirror (Тарсем Синх / Tarsus Singh, фэнте ...
  • Белоснежка: Месть гномов / Mirror Mirror (Тарсем Синх / Tarsus Singh, фэнте ...
  • Белоснежка: Месть гномов / Mirror Mirror (Тарсем Синх / Tarsus Singh, фэнте ...
  • Белоснежка: Месть гномов / Mirror Mirror (Тарсем Синх, фэнтези, 2012) [HDRi ...
  • Белоснежка: Месть гномов / Mirror Mirror (Тарсем Синх, фэнтези, драма, коме ...
  • Информация
    Посетители, находящиеся в группе Гости, не могут оставлять комментарии к данной публикации.