вход на сайт

Имя пользователя :
Пароль :

Восстановление пароля Регистрация
Путешествия Гулливера / Gullivers Travels (Роб Леттерман / Rob Letterman, фэнтези, комедия, приключения, 2010) [HDRip-AVC, Профессиональный (полное дублированние)]
Рейтинг:
(голосов: 1)



[img]{THEME}/images/logopost.png[/img]



Путешествия Гулливера / Gullivers Travels
«Чем больше шкаф, тем громче падает»

Год выпуска: 2010
Страна: США
Производство: Twentieth Century Fox Film Corporation
Жанр: фэнтези, комедия, приключения

Режиссёр: Роб Леттерман / Rob Letterman
В ролях: Джек Блэк, Джейсон Сигел, Эмили Блант, Аманда Пит, Билли Коннолли, Криc О’Дауд, ТиДжей Миллер, Джеймс Корден, Катрин Тейт, Эмманюэль Куатра

Перевод: Профессиональный (полное дублированние) [лицензия]
Субтитры: Русские (форсированные + полные), английские

Описание: Лемюэль Гулливер, ищущий славы и сенсационного материала, отправляется в Бермудский треугольник, одно из самых таинственных мест планеты. Оттуда шторм уносит его в неизвестном направлении к острову, населенному крошечным народом, благодаря которому Гулливер вырвется из своего тесного мирка в большой мир.



Качество: HDRip-AVC [Исх. BDRip 1080p CHD]
Продолжительность: 01:24:42

Формат: MKV
Видео кодек: x264
Аудио кодек: AC3 Dolby Digital
Видео: 1024x436; (2.35:1), 23,976 fps, ~2 010 kbps avg, 0.188 bit/pixel
Аудио: 48 kHz, AC3 Dolby Digital, 3/2 (L,C,R,l,r) + LFE ch, ~448.00 kbps avg

Дата премьеры (мир): 22 декабря 2010
Дата премьеры (мир): 6 января 2011, «Двадцатый Век Фокс СНГ»

MediaInfo ▼General
Unique ID : 171380424540836635967884069258284639191 (0x80EEAB4D72772F6B82AD29B8168223D7)
Complete name : I:OtherPuteshestvija.Gullivera.2010.Dub.HDRip.x264_VaipppPuteshestvija.Gullivera.2010.Dub.mkv
Format : Matroska
File size : 1.45 GiB
Duration : 1h 24mn
Overall bit rate : 2 457 Kbps
Movie name : Puteshestvija Gullivera (2010) Release by Vaippp
Encoded date : UTC 2011-03-09 04:21:31
Writing application : mkvmerge v4.4.0 (Die Wiederkehr) сборка от Oct 31 2010 21:52:48
Writing library : libebml v1.0.0 + libmatroska v1.0.0
Video
ID : 1
Format : AVC
Format/Info : Advanced Video Codec
Format profile : [email protected]
Format settings, CABAC : Yes
Format settings, ReFrames : 8 frames
Codec ID : V_MPEG4/ISO/AVC
Duration : 1h 24mn
Bit rate : 2 010 Kbps
Width : 1 024 pixels
Height : 436 pixels
Display aspect ratio : 2.35:1
Frame rate : 23.976 fps
Color space : YUV
Chroma subsampling : 4:2:0
Bit depth : 8 bits
Scan type : Progressive
Bits/(Pixel*Frame) : 0.188
Stream size : 1.16 GiB (80%)
Title : HDRip by Vaippp
Writing library : x264 core 112 r1867 22bfd31
Encoding settings : cabac=1 / ref=8 / deblock=1:-2:-1 / analyse=0x3:0x133 / me=umh / subme=9 / psy=1 / psy_rd=1.00:0.15 / mixed_ref=1 / me_range=32 / chroma_me=1 / trellis=2 / 8x8dct=1 / cqm=0 / deadzone=21,11 / fast_pskip=0 / chroma_qp_offset=-3 / threads=4 / sliced_threads=0 / nr=0 / decimate=1 / interlaced=0 / constrained_intra=0 / bframes=7 / b_pyramid=2 / b_adapt=2 / b_bias=0 / direct=3 / weightb=1 / open_gop=0 / weightp=2 / keyint=250 / keyint_min=23 / scenecut=40 / intra_refresh=0 / rc_lookahead=40 / rc=2pass / mbtree=0 / bitrate=2010 / ratetol=1.0 / qcomp=0.60 / qpmin=10 / qpmax=51 / qpstep=4 / cplxblur=20.0 / qblur=0.5 / vbv_maxrate=24000 / vbv_bufsize=30000 / nal_hrd=none / ip_ratio=1.40 / pb_ratio=1.30 / aq=1:1.00 / zones=115330,121847,q=35
Language : English
Audio
ID : 2
Format : AC-3
Format/Info : Audio Coding 3
Mode extension : CM (complete main)
Codec ID : A_AC3
Duration : 1h 24mn
Bit rate mode : Constant
Bit rate : 448 Kbps
Channel(s) : 6 channels
Channel positions : Front: L C R, Side: L R, LFE
Sampling rate : 48.0 KHz
Bit depth : 16 bits
Compression mode : Lossy
Stream size : 271 MiB (18%)
Title : DUB R5
Language : Russian
Text #1
ID : 3
Format : UTF-8
Codec ID : S_TEXT/UTF8
Codec ID/Info : UTF-8 Plain Text
Title : Forced
Language : Russian
Text #2
ID : 4
Format : UTF-8
Codec ID : S_TEXT/UTF8
Codec ID/Info : UTF-8 Plain Text
Title : Full
Language : Russian
Text #3
ID : 5
Format : UTF-8
Codec ID : S_TEXT/UTF8
Codec ID/Info : UTF-8 Plain Text
Language : English

b59438a2840f182b6b3ade2fc7f9ed37deda0673Путешествия Гулливера / Gullivers Travels (Роб Леттерман / Rob Letterman, фэнтези, комедия, приключения, 2010) [HDRip-AVC, Профессиональный (полное дублированние)] Путешествия Гулливера / Gullivers Travels (Роб Леттерман / Rob Letterman, фэнтези, комедия, приключения, 2010) [HDRip-AVC, Профессиональный (полное дублированние)] " />

Аплоадер: Админ, дата: 24-01-2012, 23:53, торрент скачан: 359 раз

Понравилась раздача? Посмотрите эти:
  • Путешествия Гулливера / Gullivers Travels (Чарлз Стерридж / Семейный, Прикл ...
  • Путешествия Гулливера / Gulliver s Travels (Роб Леттерман, фэнтези, комедия ...
  • Путешествия Гулливера / Gullivers Travels (Роб Леттерман, фэнтези, комедия, ...
  • Путешествия Гулливера / Gullivers Travels (Роб Леттерман, Комедия, 2010) [H ...
  • Сумасшедшая езда / Drive Angry (Патрик Люссье, фэнтези, боевик, триллер, кр ...
  • Впритык / Due Date (Тодд Филлипс, драма, комедия, 2010) [HDRip-AVC, Професс ...
  • Артур и война двух миров / Arthur et la guerre des deux mondes (Люк Бессон ...
  • Похороните меня заживо / Get Low (Аарон Шнайдер / Aaron Schneider,драма, де ...
  • Город воров / The Town [Театральная версия / Theatrical Cut] (Бен Аффлек / ...
  • Паранормальное явление 2 / Paranormal Activity 2 [Theatrical Сut / Театраль ...
  • Хранитель времени / Hugo (Мартин Скорсезе, Драма, 2011) [BDRip-AVC, Професс ...
  • Персонаж / Stranger Than Fiction (Марк Форстер, Комедия, драма, фантастика, ...
  • Команда «А» / The A-Team (Джо Карнахан, боевик, триллер, комедия, приключен ...
  • Мармадюк / Marmaduke (Том Дей, комедия, семейный, 2010) [BDRip-AVC, Дублиро ...
  • [3D] Путешествия Гулливера 3Д / Gullivers Travels 3D (Роб Леттерман / Rob L ...
  • [3D] Путешествия Гулливера 3D / Gullivers Travels 3D (Роб Леттерман, Фэнтез ...
  • Путешествия Гулливера / Gullivers Travels (Роб Леттерман, фэнтези, комедия, ...
  • Путешествия Гулливера / Gullivers Travels (Роб Леттерман, фэнтези, комедия, ...
  • [PSP VIDEO] Путешествия Гулливера / Gullivers Travels (Роб Леттерман, фэнте ...
  • Путешествия Гулливера / Gulliver s Travels (Роб Леттерман, фэнтези, комедия ...
  • Информация
    Посетители, находящиеся в группе Гости, не могут оставлять комментарии к данной публикации.