вход на сайт

Имя пользователя :
Пароль :

Восстановление пароля Регистрация
Звездная пыль / Stardust (Мэттью Вон, фэнтези, мелодрама, приключения, 2007) [HDRip-AVC, Профессиональный (полное дублирование)]
Рейтинг:
(голосов: 1)



[img]{THEME}/images/logopost.png[/img]



Звездная пыль / Stardust
«Сказка, которую не расскажешь на ночь»

Год выпуска: 2007
Страна: США , Великобритания ,Исландия
Производство: Paramount Pictures
Жанр: фэнтези, мелодрама, приключения

Режиссёр: Мэттью Вон
В ролях: Чарли Кокс, Клер Дэйнс, Мишель Пфайффер, Роберт Де Ниро, Питер О`Тул, Сиенна Миллер, Руперт Эверет, Иэн МакКеллен, Бимбо Харт, Алистер Макинтош

Перевод: Профессиональный (полное дублирование)
Субтитры: Отсутсвуют

Описание: Маленькая английская деревенька отделена древней стеной от сверхъестественной параллельной вселенной, где царят магия и волшебство. Молодой Тристан Торн опрометчиво обещает самой красивой девушке деревни, что принесёт ей слетевшую с неба звезду, упавшую по ту сторону стены.
На своём пути по следам древних легенд Тристан встретит всесильного короля и его заговорщика-сына, могущественную ведьму, капитана пиратского корабля и хитроумного торговца, а также найдёт свою истинную любовь, ключ к пониманию своей сущности и судьбы, о которой он мог только мечтать.





Качество: HDRip-AVC
Продолжительность: 02:07:43

MediaInfo ▼General
Unique ID : 224411967886359188423597106118786710402 (0xA8D42C421174F7FFB59713F0823A7B82)
Complete name : F:Мои релизыВсе релизы 10zvezdnaja_pil_HDRip-AVC.mkv
Format : Matroska
File size : 1.45 GiB
Duration : 2h 7mn
Overall bit rate : 1 630 Kbps
Encoded date : UTC 2011-07-20 07:43:15
Writing application : mkvmerge v4.6.0 (Still Crazy After All These Years) сборка от Apr 1 2011 21:01:49
Writing library : libebml v1.2.0 + libmatroska v1.1.0

Video
ID : 1
Format : AVC
Format/Info : Advanced Video Codec
Format profile : [email protected]
Format settings, CABAC : Yes
Format settings, ReFrames : 8 frames
Codec ID : V_MPEG4/ISO/AVC
Duration : 2h 7mn
Bit rate : 1 245 Kbps
Width : 960 pixels
Height : 400 pixels
Display aspect ratio : 2.40:1
Frame rate : 23.976 fps
Color space : YUV
Chroma subsampling : 4:2:0
Bit depth : 8 bits
Scan type : Progressive
Bits/(Pixel*Frame) : 0.135
Stream size : 1.08 GiB (74%)
Writing library : x264 core 115 r1937 aa21558
Encoding settings : cabac=1 / ref=8 / deblock=1:-1:-1 / analyse=0x3:0x133 / me=umh / subme=9 / psy=1 / psy_rd=1.00:0.10 / mixed_ref=1 / me_range=16 / chroma_me=1 / trellis=2 / 8x8dct=1 / cqm=0 / deadzone=21,11 / fast_pskip=1 / chroma_qp_offset=-3 / threads=6 / sliced_threads=0 / nr=0 / decimate=1 / interlaced=0 / bluray_compat=0 / constrained_intra=0 / bframes=3 / b_pyramid=2 / b_adapt=2 / b_bias=0 / direct=3 / weightb=1 / open_gop=0 / weightp=2 / keyint=250 / keyint_min=23 / scenecut=40 / intra_refresh=0 / rc_lookahead=60 / rc=2pass / mbtree=1 / bitrate=1245 / ratetol=1.0 / qcomp=0.60 / qpmin=0 / qpmax=69 / qpstep=4 / cplxblur=20.0 / qblur=0.5 / ip_ratio=1.40 / aq=1:1.00

Audio
ID : 2
Format : AC-3
Format/Info : Audio Coding 3
Mode extension : CM (complete main)
Codec ID : A_AC3
Duration : 2h 7mn
Bit rate mode : Constant
Bit rate : 384 Kbps
Channel(s) : 6 channels
Channel positions : Front: L C R, Side: L R, LFE
Sampling rate : 48.0 KHz
Bit depth : 16 bits
Compression mode : Lossy
Stream size : 351 MiB (24%)

Формат: MKV
Видео кодек: H.264
Аудио кодек: AС3
Видео: 960 x 400 (2.40:1), 23.976 fps, AVC, х264, [email protected], ~ 1245 Kbps, 0.135 bit/pixel
Аудио: 48 kHz, AC3 Dolby Digital, 3/2 (L,C,R,l,r) + LFE ch, ~384 kbps


bea1a4710d2283e018600fcd36b0cf20b24fa751Звездная пыль / Stardust (Мэттью Вон, фэнтези, мелодрама, приключения, 2007) [HDRip-AVC, Профессиональный (полное дублирование)] Звездная пыль / Stardust (Мэттью Вон, фэнтези, мелодрама, приключения, 2007) [HDRip-AVC, Профессиональный (полное дублирование)] " />

Аплоадер: Админ, дата: 7-01-2012, 14:01, торрент скачан: 359 раз

Понравилась раздача? Посмотрите эти:
  • FLO / NRG [2012, Pop, Dance, MasterRip]
  • Eminem / Rap God [2013, Rap, HDRip]
  • Звездная пыль / Stardust (Мэттью Вон, Фэнтези, мелодрама, приключения, семе ...
  • Как выйти замуж за 3 дня / Leap Year (Ананд Такер, Мелодрама, комедия, 2010 ...
  • Звездная пыль / Stardust (Мэттью Вон, фэнтези, мелодрама, приключения, семе ...
  • Большой Лебовский / The Big Lebowski (Джоэл Коэн,Итэн Коэн, комедия, кримин ...
  • Жизнь Пи / Life Of Pi (Энг Ли, Драма, приключения, 2012) [HDRip-AVC, Профес ...
  • Звездная пыль / Stardust (Мэттью Вон / фэнтези, приключения, мелодрама / 20 ...
  • Отражение Разбитое зеркало / The Brоken (Шон Эллис , ужасы, фэнтези, трилл ...
  • Дети шпионов 4D / Spy Kids: All the Time in the World in 4D (Роберт Родриге ...
  • Хранитель времени / Hugo (Мартин Скорсезе, Драма, 2011) [BDRip-AVC, Професс ...
  • Папина дочка / College Road Trip (Роджер Камбл, комедия, драма, приключения ...
  • Звездная пыль / Stardust (Мэттью Вон / Matthew Vaughn, фэнтези, мелодрама, ...
  • «Старый» Новый год / New Years Eve (Гэрри Маршалл, Мелодрама, 2011) [BDRip- ...
  • Неуловимый Люк / Lucky Luke (Джеймс Хат, Вестерн, 2009) [HDRip-AVC, Професс ...
  • Звездная пыль / Stardust (Мэттью Вон / Matthew Vaughn, фэнтези, мелодрама, ...
  • Звездная пыль/Stardust (Мэттью Вон, Фэнтези, 2007) [HDTV, дублированный]
  • Звёздная пыль / Stardust (в ролях Роберт Де Ниро / Robert De Niro, Мишель П ...
  • Мой парень из зоопарка / Zookeeper (Фрэнк Корачи, мелодрама, комедия, семей ...
  • Звездная пыль / Stardust (Мэттью Вон, фэнтези, мелодрама, приключения, 2007 ...
  • Звездная пыль / Stardust (Мэттью Вон, фэнтези, мелодрама, приключения, семе ...
  • Mylene Farmer / Du Temps [2011, Pop, HDTVRip]
  • Mylene Farmer / Bleu Noir [2011, Pop, HDTVRip]
  • Звездная пыль / Stardust (Мэттью Вон / Matthew Vaughn,фантастика, мелодрама ...
  • Звездная пыль / Stardust (Мэттью Вон, фэнтези, приключения, 2007) [HDRip, п ...
  • Информация
    Посетители, находящиеся в группе Гости, не могут оставлять комментарии к данной публикации.