вход на сайт

Имя пользователя :
Пароль :

Восстановление пароля Регистрация
Путь воина / The Warriors Way (Снгму Ли, фэнтези, боевик, вестерн, 2010) [HDRip-AVC, Профессиональный (полное дублирование)] by Torrent Club
Рейтинг:
(голосов: 1)



[img]{THEME}/images/logopost.png[/img]



Путь воина / The Warriors Way

Слоган "Если есть "

Год выпуска: 2010
Страна: США ,Корея Южная , Новая Зеландия
Производство: Culture Unplugged Studios, Fuse Media, Sad Flutes
Жанр: фэнтези, боевик, вестерн

Режиссёр: Снгму Ли
В ролях: Чан Дон Ган, Кейт Босворт, Джеффри Раш, Дэнни Хьюстон, Мэтт Джилландерс, Тони Кокс, Ланг Ти, Эналин Радд, Маркус Хэмилтон, Род Люисих

Перевод: Профессиональный (полное дублирование)
Субтитры: отсутствуют

Описание:
Великий воин Янг — живая легенда, рожденная на поле боя. Он был так силен, что ни одна армия не могла его победить.

Однажды, уничтожая врагов своего клана, самурай отказался убить маленькую девочку, за что его ждет смертный приговор. С младенцем на руках он бежит в Новый Свет, в Америку и находит убежище в захолустном городке, жители которого живут в постоянном страхе перед бандой безжалостного Полковника… Но и здесь прошлое преследует Янга. Он снова должен обнажить свой меч…



Доп. информация:

Релиз от :
Рейтинг MPAA: ▼
Премьера: ▼премьера (мир): 1 декабря 2010
премьера (РФ): 2 декабря 2010

релиз на Blu-Ray: 12 мая 2011
релиз на DVD: 7 апреля 2011

Тех. данные:
Качество: HDRip-AVC (исходник - BDRip 720p)
Продолжительность: 01:40:28 час.

Формат: MKV
Видео кодек: x264
Аудио кодек: AC-3
Видео: 1024x424 (2.40:1), 23.976 fps, ~1758 kbps avg, 0.169 bit/pixel
Аудио: 48 kHz, Audio Coding 3, 6 ch(Front: L C R, Side: L R, LFE), ~320.00 kbps avg
"MediaInfo" ▼TextОбщее
Уникальный идентификатор : 248801849015006675515480949415052487336 (0xBB2D7E3D5AAF2089B89AB1E13B2EAAA8)
Полное имя : C:UsersШапагатDesktop he.warriors.way.2010.hdrip-avc.mkv
Формат : Matroska
Версия формата : Version 2
Размер файла : 1,45 Гбайт
Продолжительность : 1 ч. 40 м.
Общий поток : 2073 Кбит/сек
Дата кодирования : UTC 2011-07-21 18:45:57
Программа кодирования : mkvmerge v4.6.0 (Still Crazy After All These Years) сборка от Apr 1 2011 21:01:49
Библиотека кодирования : libebml v1.2.0 + libmatroska v1.1.0

Видео
Идентификатор : 1
Формат : AVC
Формат/Информация : Advanced Video Codec
Профиль формата : [email protected]
Параметр CABAC формата : Да
Параметр ReFrames формата : 8 кадров
Идентификатор кодека : V_MPEG4/ISO/AVC
Продолжительность : 1 ч. 40 м.
Битрейт : 1758 Кбит/сек
Ширина : 1024 пикс.
Высота : 424 пикс.
Соотношение сторон : 2,40:1
Частота кадров : 23,976 кадр/сек
Цветовое пространство : YUV
Подвыборка цветности : 4:2:0
Битовая глубина : 8 бит
Тип развёртки : Прогрессивная
Бит/(Пиксели*Кадры) : 0.169
Размер потока : 1,20 Гбайт (83%)
Библиотека кодирования : x264 core 115 r1937 aa21558
Настройки программы : cabac=1 / ref=8 / deblock=1:-1:-1 / analyse=0x3:0x133 / me=umh / subme=8 / psy=1 / psy_rd=1.00:0.10 / mixed_ref=1 / me_range=16 / chroma_me=1 / trellis=2 / 8x8dct=1 / cqm=0 / deadzone=21,11 / fast_pskip=0 / chroma_qp_offset=-3 / threads=3 / sliced_threads=0 / nr=0 / decimate=1 / interlaced=0 / bluray_compat=0 / constrained_intra=0 / bframes=3 / b_pyramid=2 / b_adapt=2 / b_bias=0 / direct=3 / weightb=1 / open_gop=0 / weightp=2 / keyint=250 / keyint_min=23 / scenecut=40 / intra_refresh=0 / rc_lookahead=50 / rc=2pass / mbtree=1 / bitrate=1758 / ratetol=1.0 / qcomp=0.60 / qpmin=0 / qpmax=69 / qpstep=4 / cplxblur=20.0 / qblur=0.5 / ip_ratio=1.40 / aq=1:1.00

Аудио
Идентификатор : 2
Формат : AC-3
Формат/Информация : Audio Coding 3
Расширение режима : CM (complete main)
Идентификатор кодека : A_AC3
Продолжительность : 1 ч. 40 м.
Вид битрейта : Постоянный
Битрейт : 320 Кбит/сек
Каналы : 6 каналов
Расположение каналов : Front: L C R, Side: L R, LFE
Частота : 48,0 КГц
Битовая глубина : 16 бит
Метод сжатия : С потерями
Размер потока : 229 Мбайт (15%)



Раздача группы: Наши раздачи
Набор в группу




3f60759afaab743a2dcee45d1673b78b90367c49Путь воина / The Warriors Way (Снгму Ли, фэнтези, боевик, вестерн, 2010) [HDRip-AVC, Профессиональный (полное дублирование)] by Torrent Club Путь воина / The Warriors Way (Снгму Ли, фэнтези, боевик, вестерн, 2010) [HDRip-AVC, Профессиональный (полное дублирование)] by Torrent Club " />

Аплоадер: Админ, дата: 22-07-2011, 00:55, торрент скачан: 359 раз

Понравилась раздача? Посмотрите эти:
  • Андроид / Android (App) (Бобо Боерманс, Tриллер, 2013) [BDRip-AVC, Професси ...
  • Путь воина / The Warriors Way(Снгму Ли, фэнтези, боевик, вестерн, 2012) [BD ...
  • Даю год / I Give It a Year (Дэн Мазер, мелодрама, комедия, 2012) [BDRip-AVC ...
  • Паркер / Parker (Тейлор Хэкфорд, Боевик, триллер, криминал, 2013) [BDRip-AV ...
  • Путь воина / The Warriors Way (Снгму Ли / Sngmoo Lee, Фэнтези, Боевик, Вест ...
  • Путь воина / The Warriors Way (Снгму Ли, фэнтези, боевик, вестерн, 2010) [B ...
  • Измученный / The Tortured (Роберт Либерман, ужасы, триллер, драма, 2010) [H ...
  • Ужин с придурками / Dinner for Schmucks (Джей Роуч, комедия, 2010) [HDRip - ...
  • Немыслимое / Unthinkable (Грегор Джордан, триллер, драма, 2009) [HDRip - AV ...
  • Белый слон / Elephant White (Прачья Пинкаю, боевик, триллер, криминал, 2011 ...
  • Двенадцать / Twelve (Джоэл Шумахер, триллер, драма, 2010) [HDRip-AVC, Профе ...
  • Путь воина / The Warriors Way (Снгму Ли, фэнтези, боевик, вестерн, 2010) [H ...
  • Человек с Земли / The Man from Earth (Ричард Шенкман, фантастика, драма, 20 ...
  • Девушка по вызову / The Girlfriend Experience (Стивен Содерберг, Драма, 200 ...
  • Страшно красив / Beastly (Даниел Барнз, фэнтези, драма, мелодрама, 2011) [H ...
  • Драйв / Drive (Николас Виндинг Рёфн, боевик, триллер, драма, криминал, 2011 ...
  • Профессионал / Killer Elite (Гэри МакКендри, боевик, 2011) [BDRip-AVC, Проф ...
  • Путь воина / The Warriors Way (Снгму Ли / фэнтези, боевик, вестерн, 2010) [ ...
  • Дьявол / Devil (Джон Эрик Даудл / John Erick Dowdle,ужасы, триллер, детекти ...
  • Проект X: Дорвались / Project X (Нима Нуризаде, комедия, 2012) [BDRip - AVC ...
  • История игрушек: Гавайские каникулы / Toy Story: Hawaiian Vacation (Гари ...
  • Павшая империя / Hirokin (Алехо Мо-Сан, фантастика, боевик, драма, приключе ...
  • Петля времени / Looper (Райан Джонсон, Фантастика, боевик, триллер, кримина ...
  • Сейчас самое время / Now Is Good (Ол Паркер, Мелодрама, 2012) [BDRip-AVC, П ...
  • Путь воина / The Warrior s Way ( Снгму Ли,фэнтези, боевик, вестерн, 2010) [ ...
  • Информация
    Посетители, находящиеся в группе Гости, не могут оставлять комментарии к данной публикации.