вход на сайт

Имя пользователя :
Пароль :

Восстановление пароля Регистрация
Рождение надежды (Властелин колец) / Born Of Hope (Кейт Робинсон / Kate Robinson, Боевик, Фэнтези, Мелодрама, Приключения, 2009)[DVDRip, Любительский (одноголосый) + Оригинал +sub]
Рейтинг:
(голосов: 1)



[img]{THEME}/images/logopost.png[/img]




Рождение надежды / Born Of Hope
Слоган: «A light in the darkness. A destiny born of hope.»

Год выпуска: 2009
Страна: Великобритания
Жанр: Боевик, Фэнтези, Мелодрама, Приключения

Режиссёр: Кейт Робинсон / Kate Robinson
В ролях:
Кристофер Дэйн / Christopher Dane - Араторн
Бет Эйнсли / Beth Aynsley - Гилраэн
Кейт Робинсон / Кейт Робинсон - Элгарайн
Дэнни Джордж / Danny George - Дирхаборн
Йен Маршалл / Ian Marshall - Арадор
Эндрю МакДональнд / Andrew McDonald - Дирхаборн
Филиппа Хэммонд / Philippa Hammond - Айворвен
Ховард Корлетт / Howard Corlett - Халбарон
Мэтт Кеннард / Matt Kennard - Элладан
Сэм Кеннард / Sam Kennard - Элорохир

Перевод: Любительский (одноголосый)
Субтитры: Есть

Описание: Разрозненный народ, потомки легендарных морских королей древнего Запада, борятся за выживание в пустынной глуши, так как темные силы беспрестанно сгибают их волю в бесконечных попытках уничтожить этот народ. И все же среди этих отважных, отчаянных людей теплится надежда. Королевская власть несмотря ни на что передается от отца к сыну.

Британский независимый фанфильм "Born of Hope", находившийся в работе почти три года, вышел в свет 1 декабря. "Born of Hope" британского режиссера Кейт Мэдисон рассказывает об истории любви Араторна и Гилраэнь, и о рождении Арагорна. Фильм был снят британскими фанатами с ограниченным бюджетом - тем не менее, их профессиональность впечатлили начальника WETA Workshop Ричарда Тейлора, который даже помог добыть те или иные реквизиты. Для фильма был написан оригинальный саундтрек.



Доп. информация:

Премьеры ▼
премьера (мир): 1 декабря 2009
бюджет: £25 000

MediaInfo ▼Text
General
Format : AVI
Format/Info : Audio Video Interleave
File size : 682 MiB
Duration : 1h 8mn
Overall bit rate : 1 399 Kbps
Writing application : VirtualDubMod 1.5.10.2 (build 2542/release)
Writing library : VirtualDubMod build 2542/release
Video #0
ID : 0
Format : MPEG-4 Visual
Format profile : Advanced [email protected]
Format settings, BVOP : 1
Format settings, QPel : Yes
Format settings, GMC : No warppoints
Format settings, Matrix : Custom
Codec ID : XVID
Codec ID/Hint : XviD
Duration : 1h 8mn
Bit rate : 1 262 Kbps
Width : 720 pixels
Height : 288 pixels
Display aspect ratio : 2.500
Frame rate : 25.000 fps
Color space : YUV
Chroma subsampling : 4:2:0
Bit depth : 8 bits
Scan type : Progressive
Compression mode : Lossy
Bits/(Pixel*Frame) : 0.243
Stream size : 615 MiB (90%)
Writing library : XviD 1.2.1 (UTC 2008-12-04)
Audio #1
ID : 1
Format : MPEG Audio
Format version : Version 1
Format profile : Layer 3
Codec ID : 55
Codec ID/Hint : MP3
Duration : 1h 8mn
Bit rate mode : Constant
Bit rate : 128 Kbps
Channel(s) : 2 channels
Sampling rate : 44.1 KHz
Compression mode : Lossy
Stream size : 62.4 MiB (9%)
Alignment : Split accross interleaves
Interleave, duration : 40 ms (1.00 video frame)
Interleave, preload duration : 500 ms
Writing library : LAME3.92
3aec10a5062b72f5a0848c0bc4d7ef60181ef79aРождение надежды (Властелин колец) / Born Of Hope (Кейт Робинсон / Kate Robinson, Боевик, Фэнтези, Мелодрама, Приключения, 2009)[DVDRip, Любительский (одноголосый) + Оригинал +sub] Рождение надежды (Властелин колец) / Born Of Hope (Кейт Робинсон / Kate Robinson, Боевик, Фэнтези, Мелодрама, Приключения, 2009)[DVDRip, Любительский (одноголосый) + Оригинал +sub] " />

Аплоадер: Админ, дата: 8-06-2011, 01:17, торрент скачан: 359 раз

Понравилась раздача? Посмотрите эти:
  • Вирус / Flu (Ким Сон Су, Драма, 2013) [HDTVRip, Любительский (двухголосый з ...
  • Мужество / Wymyk (Грег Зглински, драма, 2011) [DVDRip, Любительский (одного ...
  • Берлинское дело / The Berlin File (Рю Сын Ван, Боевик, триллер, драма, 2013 ...
  • 23:59 / 23:59 (Гилберт Чан, Ужасы, 2011) [HDRip, Любительский (одноголосый ...
  • Чемпионат Германии 2012-2013 / 32-й тур / Обзор матчей / Футбол + (UA) [06. ...
  • Чемпионат Италии 2012-13 / 36-й тур / Рома — Кьево / НТВ+ [07.05.2013, SD, ...
  • Весенние надежды / Hope Springs (Дэвид Фрэнкел, Драма, мелодрама, комедия, ...
  • Псы войны / The Dogs of War (Джон Ирвин, боевик, драма, приключения, военны ...
  • Новые парни турбо / New Kids Turbo (Штефен Хаарс, Боевик, комедия, 2010) [H ...
  • Тюремщик / Screwed (Рег Тревисс / Reg Traviss, Драма, 2011) [DVDRip , Люби ...
  • Чемпионат Европы 2012 / Группа C / 1-й тур / Ирландия — Хорватия / ТРК Футб ...
  • Чемпионат Европы 2012 / Группа D / 1-й тур / Украина - Швеция / Спорт 1 [11 ...
  • Олимпиада 2012 / Мужчины / Группа D / 1-й тур / Испания — Япония / НТВ+ [Фу ...
  • Олимпиада 2012 / Футбол / Мужчины / Группа A / 3-й тур / Великобритания - У ...
  • Tank Feat. T.I. & Kris Stephens / Compliments [2012, RnB,Hip-Hop, HDRip]
  • Неделя в NBA с В.Гомельским / НТВ+ [28.06.2011, SD, XviD, RU, SAT]
  • Скуби-Ду: Нападение Пантазаура / Scooby-Doo! Legend of the Phantosaur (Дугл ...
  • Lana Del Rey / Born To Die [2011, Indie Pop, HDRip]
  • Мокрый коврик / Mortal Kombat (Пол У. С. Андерсон, Пародия, 1995) [DVDRip, ...
  • Чемпионат Европы 2012 / Группа B / 1-й тур / Германия - Португалия / Спорт ...
  • NBA Finals 2012 / Sportscenter / В преддверии 3-ей игры / Viasat Sport [Бас ...
  • Все матчи Dream Team на Олимпийских играх в Барселоне [1992 г., Баскетбол, ...
  • Олимпиада 2012 / Женщины, Мужчины / Плавание / Квалификация / НТВ+ [30.07.2 ...
  • Ничего, кроме правды / Nothing But the Truth (Род Лури, триллер, драма, 200 ...
  • Робинзон Крузо / Robinson Crusoe (Род Харди, Джордж Миллер, драма, приключе ...
  • Информация
    Посетители, находящиеся в группе Гости, не могут оставлять комментарии к данной публикации.