вход на сайт

Имя пользователя :
Пароль :

Восстановление пароля Регистрация
Путешествия Гулливера / Gullivers Travels (Чарльз Старридж, фэнтези, приключения, семейный, 1996) [DVDRip, Профессиональный (двухголосый, закадровый)]
Рейтинг:
(голосов: 1)



[img]{THEME}/images/logopost.png[/img]



Путешествия Гулливера / Gullivers Travels

Год выпуска: 1996
Страна: США, Великобритания
Производство: Channel 4 Television Corporation, Hallmark Entertainment, Jim Henson Productions
Жанр: фэнтези, приключения, семейный

Режиссёр: Чарльз Старридж
В ролях: Тед Дэнсон, Мэри Стинберген, Джеймс Фокс, Нед Битти, Эдвард Фокс, Роберт Харди, Николас Линдхерст, Фиби Николлс, Керин Парсонс, Эдвард Петербридж

Перевод: Профессиональный (двухголосый, закадровый)
Субтитры: Отсутствуют

Описание:
Он был великаном в Стране Лилипутов и лилипутом в Стране Великанов. Он в одиночку сражался с вражеским флотом и гигантскими осами. Он побывал на Летающем острове ученых и в Стране Говорящих Лошадей. Он разговаривал с духами мертвых и едва не обрел бессмертие… И единственным человеком, поверившим во все это, был его сын.


Дополнительно:
Рейтинг MPAA: ▼
Рейтинг PG - Рекомендуется присутствие родителей



MediaInfo ▼Text
Общее
Полное имя :L:Путешествия ГулливераPuteshestviya Gullivera.avi
Формат :AVI
Размер :2.74 GiB
Продолжительность :02:59:19.944
Общий поток :2 184 Kbps

Видео
Идентификатор :0
Формат :MPEG-4 Visual
Параметр BVOP формата :1
Параметр Qpel формата :No
Параметр GMC формата :0
Параметр Matrix формата :Default (H.263)
Идентификатор кодека :DX50
Продолжительность :2h 59mn 19s 880ms
Битрейт :1 852 Kbps
Ширина :720 pixels
Высота :512 pixels
Соотношение сторон :1.406
Частота кадров :25.000 fps
Глубина цвета :8 bits
Подвыборка цветности :4:2:0
Цветовое пространство :YUV
Тип развертки :Progressive
Бит/(Пиксели*Кадры) :0.201
Размер потока :2.32 GiB (85%)
Библиотека кодирования :DivX503b2676p

Аудио #1
Идентификатор :1
Формат :MPEG Audio
Идентификатор кодека :55
Продолжительность :02:59:19.944
Вид битрейта :Constant
Битрейт :320 Kbps
Канал(ы) :2 channels
Частота :48.0 KHz
Метод сжатия :Lossy
Размер потока :410 MiB (15%)



Тех. данные:
Качество:DVDRip
Продолжительность:02:59:14 час

Формат: AVI
Видео кодек: D
786bdacf3c278702c0fdbbf068a9252ac83764a0Путешествия Гулливера / Gullivers Travels (Чарльз Старридж, фэнтези, приключения, семейный, 1996) [DVDRip, Профессиональный (двухголосый, закадровый)] Путешествия Гулливера / Gullivers Travels (Чарльз Старридж, фэнтези, приключения, семейный, 1996) [DVDRip, Профессиональный (двухголосый, закадровый)] " />

Аплоадер: Админ, дата: 28-02-2013, 21:49, торрент скачан: 359 раз

Понравилась раздача? Посмотрите эти:
  • Свифт Джонатан — Путешествия Гулливера (9 изданий) // 9 [DjVu, FB2, PDF / 1 ...
  • Индеец-беглец / The Indian Runner (Шон Пенн, драма, 1991) [DVDRip, Професси ...
  • Однажды на матрасе / Once Upon a Mattress (Кэтлин Маршалл, мюзикл, мелодрам ...
  • Путешествия Гулливера / Gullivers Travels (Чарлз Стерридж / Семейный, Прикл ...
  • Путешествия Гулливера / Gulliver s Travels (Роб Леттерман, фэнтези, комедия ...
  • Путешествия Гулливера / Gullivers Travels (Роб Леттерман, фэнтези, комедия, ...
  • Путешествия Гулливера / Gullivers Travels (Роб Леттерман, Комедия, 2010) [H ...
  • Язон и аргонавты / Jason and the Argonauts (Ник Уиллинг, фэнтези, приключен ...
  • Путешествия Гулливера / Gullivers Travels (Роб Леттерман / Rob Letterman, ф ...
  • [3D] Путешествия Гулливера 3Д / Gullivers Travels 3D (Роб Леттерман / Rob L ...
  • [3D] Путешествия Гулливера 3D / Gullivers Travels 3D (Роб Леттерман, Фэнтез ...
  • Путешествия Гулливера / Gullivers Travels (Роб Леттерман, фэнтези, комедия, ...
  • Путешествия Гулливера / Gullivers Travels (Роб Леттерман, фэнтези, комедия, ...
  • [PSP VIDEO] Путешествия Гулливера / Gullivers Travels (Роб Леттерман, фэнте ...
  • Путешествия Гулливера / Gulliver s Travels (Роб Леттерман, фэнтези, комедия ...
  • Таинственный остров / Остров приключений / Mysterious Island (Сай Эндфилд, ...
  • Фиби в Стране чудес / Phoebe in Wonderland (Даниел Барнз, Фэнтези, Драма, С ...
  • Бог знает, мистер Аллисон / Heaven Knows, Mr. Allison (Джон Хьюстон, боевик ...
  • Великий Уолдо Пеппер / The Great Waldo Pepper (Джордж Рой Хилл, драма, прик ...
  • Сделано в Раю / Made in Heaven (Алан Рудольф, фэнтези, мелодрама, комедия, ...
  • Информация
    Посетители, находящиеся в группе Гости, не могут оставлять комментарии к данной публикации.