вход на сайт

Имя пользователя :
Пароль :

Восстановление пароля Регистрация
Призрачный выпускной / Похождения призрака / Promocion fantasma / Promoción fantasma (Хавьер Руис, Фэнтези, комедия, приключения, 2012) [BDRip, Профессиональный (многоголосый, закадровый)]
Рейтинг:
(голосов: 1)



[img]{THEME}/images/logopost.png[/img]



• Призрачный выпускной / Похождения призрака / Promocion fantasma •
-

Год выпуска: 2012
Страна: Испания
Производство: Mod Producciones
Жанр: Фэнтези, комедия, приключения

Режиссёр: Хавьер Руис
В ролях: Рауль Аревало, Александра Хименес, Хавьер Гонзалез, Анна Кастилло, Андреа Дуро, Аура Гарридо, Алекс Маруни, Хайме Олиас, Карлос Аресес, Сильвия Абрил

Перевод: Профессиональный (многоголосый закадровый)
Субтитры: Нет

Описание: Обладающий паранормальными способностями заурядный учитель Модесто может видеть мертвых людей. Это не принесло ему никаких успехов в жизни, скорее наоборот, из-за этого его каждый раз увольняют с работы.

Однажды ему таки улыбается удача, и он устраивается работать в очень престижную элитную школу. Там его задачей становится обеспечить успешное окончание школы пяти трудным ученикам. Проблема лишь в том, что все они уже двадцать лет как мертвы, погибнув при охватившем школу пожаре. Для измученной пятеркой призраков директрисы школы единственной надеждой на долгожданное избавление от них становится неудачник Модесто.
Качество: BDRip |Сэмпл | Сравнение скриншотов с этой раздачей
Продолжительность: 01:28:20


Формат: AVI
Видео кодек: XviD
Аудио кодек: AC3
Видео: 720x304 (2.35:1), 23.976 fps, XviD 65 ~2159 kbps avg, 0.411 bit/pixel
Аудио: 48 kHz, AC3 Dolby Digital, 2/0 (L,R) ch, 192.00 kbps


MediaInfo ▼TextGeneral
Format : AVI
Format/Info : Audio Video Interleave
File size : 1.46 GiB
Duration : 1h 28mn
Overall bit rate : 2 360 Kbps
Writing application : VirtualDubMod 1.5.10.3 | www.virtualdub-fr.org || (build 2550/release)
Writing library : VirtualDubMod build 2550/release

Video
ID : 0
Format : MPEG-4 Visual
Format profile : Advanced [email protected]
Format settings, BVOP : 1
Format settings, QPel : No
Format settings, GMC : No warppoints
Format settings, Matrix : Custom
Codec ID : XVID
Codec ID/Hint : XviD
Duration : 1h 28mn
Bit rate : 2 159 Kbps
Width : 720 pixels
Height : 304 pixels
Display aspect ratio : 2.35:1
Frame rate : 23.976 fps
Color space : YUV
Chroma subsampling : 4:2:0
Bit depth : 8 bits
Scan type : Progressive
Compression mode : Lossy
Bits/(Pixel*Frame) : 0.411
Stream size : 1.33 GiB (91%)
Writing library : XviD 65

Audio
ID : 1
Format : AC-3
Format/Info : Audio Coding 3
Mode extension : CM (complete main)
Format settings, Endianness : Big
Codec ID : 2000
Duration : 1h 28mn
Bit rate mode : Constant
Bit rate : 192 Kbps
Channel(s) : 2 channels
Channel positions : Front: L R
Sampling rate : 48.0 KHz
Bit depth : 16 bits
Compression mode : Lossy
Stream size : 121 MiB (8%)
Alignment : Split accross interleaves
Interleave, duration : 42 ms (1.00 video frame)
Interleave, preload duration : 500 ms


Релиз Группы "Virtus"

Стол заказов / Вступление в РГ / Благодарности, критика и другое


33442955efb555bbc367fab640b65455fa9d6679Призрачный выпускной / Похождения призрака / Promocion fantasma / Promoción fantasma (Хавьер Руис, Фэнтези, комедия, приключения, 2012) [BDRip, Профессиональный (многоголосый, закадровый)] Призрачный выпускной / Похождения призрака / Promocion fantasma / Promoción fantasma (Хавьер Руис, Фэнтези, комедия, приключения, 2012) [BDRip, Профессиональный (многоголосый, закадровый)] " />

Аплоадер: Админ, дата: 5-03-2013, 15:46, торрент скачан: 359 раз

Понравилась раздача? Посмотрите эти:
  • Орудие смерти / A-i-deul... (Ли Гю Ман, Триллер, криминал, 2011) [DVDRip, П ...
  • Мои герои / Mes heros (Эрик Беснард, комедия, 2012) [HDRip, Профессиональны ...
  • Мэрайа Мунди и шкатулка Мидаса / The Adventurer: The Curse of the Midas Box ...
  • 42 / 42 (Брайан Хелгеленд, драма, биография, спорт, 2013) [BDRip, Профессио ...
  • Спайдервик: Хроники / The Spiderwick Chronicles (Марк С. Уотерс, Фэнтези, п ...
  • МЫ. Верим в любовь / W.E. (Мадонна, Драма, мелодрама, история, 2011) [BDRip ...
  • Любовь на кончиках пальцев / Populaire (Режис Ройнсар, Мелодрама, комедия, ...
  • Безопасность не гарантируется / Safety Not Guaranteed (Колин Треворроу, фан ...
  • Любовь на кончиках пальцев / Populaire (Режис Ройнсар, Мелодрама, комедия, ...
  • В хлам / Smashed (Джеймс Понсольдт, Драма, комедия, 2012) [HDRip, Профессио ...
  • Магазин самоубийств / Le magasin des suicides (Патрис Леконт, мультфильм, м ...
  • Весенние надежды / Hope Springs (Дэвид Фрэнкел, Драма, мелодрама, комедия, ...
  • Суперстар / Superstar (Ксавье Джианноли, Драма, комедия, 2012) [HDRip, Проф ...
  • Экипаж / Flight (Роберт Земекис, Драма, 2012) [BDRip, Профессиональный (пол ...
  • Простые истины / Straight As (Джеймс Кокс, драма, комедия, 2013) [HDRip, П ...
  • Плохая актриса / Bad Actress (Роберт Ли Кинг, комедия, 2011) [DVDRip, Профе ...
  • Эрик Викинг / Erik the Viking (Терри Джонс, фэнтези, комедия, приключения, ...
  • Джефф, живущий дома / Jeff, Who Lives at Home (Джей Дюпласс, Марк Дюпласс, ...
  • Захват / Carjacked (Джон Бонито, триллер, 2011)[BDRip, Профессиональный (мн ...
  • Три богатыря на дальних берегах (Константин Феоктистов, мультфильм, комедия ...
  • Дом вверх дном / Bringing Down the House (Адам Шенкман, комедия, 2003) [BDR ...
  • Трус / Faintheart (Вито Рокко, Комедия, 2008) [BDRip, Профессиональный (дву ...
  • Супершторм в Сиэтле / Seattle Superstorm (Джейсон Бурк, фантастика, боевик ...
  • Призрачный выпускной / Похождения призрака / Promocion fantasma / Promoción ...
  • Призрачный выпускной / Похождения призрака / Promocion fantasma / Promoción ...
  • Информация
    Посетители, находящиеся в группе Гости, не могут оставлять комментарии к данной публикации.