вход на сайт

Имя пользователя :
Пароль :

Восстановление пароля Регистрация
Моя ужасная няня 2 / Nanny McPhee and the Big Bang (Сузанна Уайт, Фэнтези, комедия, семейный, 2010) [BDRip-AVC, Дубляж, Украинский, Оригинал, Sub]
Рейтинг:
(голосов: 1)



[img]{THEME}/images/logopost.png[/img]



Моя ужасная няня 2 / Nanny McPhee and the Big Bang
«Чудеса возвращаются»

Год выпуска: 2010
Страна: США , Великобритания , Франция
Производство: Summit Entertainment.
Жанр: Фэнтези, комедия, семейный

Режиссёр: Сузанна Уайт

В ролях: Мэгги Джилленхол, Оскар Стир, Аса Баттерфилд, Лил Вудс, Эрос Влахос, Рози Тейлор-Ритсон, Дэниэл Мейс, Рис Иванс, Мэгги Смит, Шинед Мэтьюз

Перевод:
1. Дубляж
2. Украинский
3. Оригинал (английский)
Субтитры: Русские, украинские, английские

Описание:
Действие разворачивается десятки лет спустя после первой картины. Идет война, и няня-волшебница делит свое внимание между двумя семьями: сельской и городской. Отцы семейств на фронте, и в ролях любящих родителей на этот раз выступают мамаши.

Автор рипа:




Дата премьеры (мир): 24 марта 2010
Дата премьеры (РФ): 22 апреля 2010, «UPI»

Качество: BDRip-AVC
Продолжительность: 01:49:20 час.

Формат: MKV
Видео кодек: x264
Аудио кодек: AC3
Видео: 1024x426 (2,40:1), 23.976 fps, x264 ~2 099 kbps avg, 0.201 bit/pixel
Аудио #1: 48 kHz, AC3 Dolby Digital, 6 ch, ~384.00 kbps avg | Дубляж
Аудио #2: 48 kHz, AC3 Dolby Digital, 6 ch, ~384.00 kbps avg | Укринский
Аудио #3: 48 kHz, AC3 Dolby Digital, 6 ch, ~384.00 kbps avg | Оригинал (английский)

MediaInfo ▼Общее
Уникальный идентификатор : 232746060971370210344500990729897771626 (0xAF1942C5831256878C77B92552F2026A)
Полное имя : D:1Moja.uzhasnaja.njanja.2.2010.x264.BDRip.(AVC).ExKinoRay.mkv
Формат : Matroska
Размер файла : 2,48 Гбайт
Продолжительность : 1 ч. 49 м.
Общий поток : 3251 Кбит/сек
Название фильма : Moja.uzhasnaja.njanja.2.2010.x264.BDRip.(AVC).ExKinoRay
Дата кодирования : UTC 2013-04-11 12:03:09
Программа кодирования : mkvmerge v4.0.0 (The Stars were mine) сборка от Jun 6 2010 16:18:42
Библиотека кодирования : libebml v1.0.0 + libmatroska v1.0.0

Видео
Идентификатор : 1
Формат : AVC
Формат/Информация : Advanced Video Codec
Профиль формата : [email protected]
Параметр CABAC формата : Да
Параметр ReFrames формата : 10 кадров
Идентификатор кодека : V_MPEG4/ISO/AVC
Продолжительность : 1 ч. 49 м.
Битрейт : 2099 Кбит/сек
Ширина : 1024 пикс.
Высота : 426 пикс.
Соотношение сторон : 2,40:1
Частота кадров : 23,976 кадр/сек
Цветовое пространство : YUV
Подвыборка цветности : 4:2:0
Битовая глубина : 8 бит
Тип развёртки : Прогрессивная
Бит/(Пиксели*Кадры) : 0.201
Размер потока : 1,55 Гбайт (63%)
Заголовок : Rip by Enigma-Vladislav71
Библиотека кодирования : x264 core 129 r2245 bc13772
Настройки программы : cabac=1 / ref=10 / deblock=1:-3:-3 / analyse=0x3:0x133 / me=umh / subme=11 / psy=1 / psy_rd=1.00:0.00 / mixed_ref=1 / me_range=48 / chroma_me=1 / trellis=2 / 8x8dct=1 / cqm=0 / deadzone=21,11 / fast_pskip=0 / chroma_qp_offset=-2 / threads=3 / lookahead_threads=1 / sliced_threads=0 / nr=0 / decimate=0 / interlaced=0 / bluray_compat=0 / constrained_intra=0 / bframes=8 / b_pyramid=2 / b_adapt=2 / b_bias=0 / direct=3 / weightb=1 / open_gop=0 / weightp=2 / keyint=240 / keyint_min=23 / scenecut=40 / intra_refresh=0 / rc_lookahead=40 / rc=2pass / mbtree=1 / bitrate=2099 / ratetol=1.0 / qcomp=0.60 / qpmin=10 / qpmax=51 / qpstep=4 / cplxblur=20.0 / qblur=0.5 / ip_ratio=1.40 / aq=2:1.00
Язык : English

Аудио #1
Идентификатор : 2
Формат : AC-3
Формат/Информация : Audio Coding 3
Расширение режима : CM (complete main)
Идентификатор кодека : A_AC3
Продолжительность : 1 ч. 49 м.
Вид битрейта : Постоянный
Битрейт : 384 Кбит/сек
Каналы : 6 каналов
Расположение каналов : Front: L C R, Side: L R, LFE
Частота : 48,0 КГц
Битовая глубина : 16 бит
Метод сжатия : С потерями
Размер потока : 300 Мбайт (12%)
Заголовок : Дублированный (R5)
Язык : Russian

Аудио #2
Идентификатор : 3
Формат : AC-3
Формат/Информация : Audio Coding 3
Расширение режима : CM (complete main)
Идентификатор кодека : A_AC3
Продолжительность : 1 ч. 49 м.
Вид битрейта : Постоянный
Битрейт : 384 Кбит/сек
Каналы : 6 каналов
Располож
991ed07f7dfe3d6d4cb8fc5b70aea3cce0ce2f47Моя ужасная няня 2 / Nanny McPhee and the Big Bang (Сузанна Уайт, Фэнтези, комедия, семейный, 2010) [BDRip-AVC, Дубляж, Украинский, Оригинал, Sub] Моя ужасная няня 2 / Nanny McPhee and the Big Bang (Сузанна Уайт, Фэнтези, комедия, семейный, 2010) [BDRip-AVC, Дубляж, Украинский, Оригинал, Sub] " />

Аплоадер: Админ, дата: 13-04-2013, 14:01, торрент скачан: 359 раз

Понравилась раздача? Посмотрите эти:
  • Моя ужасная няня / Nanny McPhee (Кирк Джонс, Фэнтези, комедия, семейный, 20 ...
  • Мальчишник: Часть III / The Hangover Part III (Тодд Филлипс, комедия, 2013) ...
  • Узник / One in the Chamber (Уильям Кауфман, боевик, триллер, криминал, 2012 ...
  • Ангелы Чарли / Charlies Angels (МакДжи, Боевик, триллер, комедия, криминал, ...
  • Призраки / Ghosted (Крэйг Вивейрос, Триллер, драма, 2011) [BDRip-AVC, Профе ...
  • Моя ужасная няня / Nanny McPhee (Кирк Джонс, Фэнтези, комедия, семейный , 2 ...
  • Толстяк на ринге / Here Comes the Boom (Фрэнк Корачи, Боевик, комедия, 2012 ...
  • Страшно красив / Beastly (Даниел Барнз, фэнтези, драма, мелодрама, 2011) [H ...
  • Спиди Гонщик / Speed Racer (Энди Вачовски / Andy Wachowski, Лана Вачовски / ...
  • Дьявол / Devil (Джон Эрик Даудл / John Erick Dowdle,ужасы, триллер, детекти ...
  • Моя Ужасная Няня/Nanny McPhee (Кирк Джонс, комедия, 2005) [BDRip-AVC, Дубли ...
  • Скотт Пилигрим против всех / Scott Pilgrim vs. the World (Эдгар Райт, фэнте ...
  • Моя ужасная няня 2 / Nanny McPhee and the Big Bang (Сузанна Уайт, Фэнтези, ...
  • Третий лишний / Ted (Сет МакФарлейн, Фэнтези, комедия, 2012) [BDRip-AVC, Ду ...
  • Золото дураков / Fools Gold (Энди Теннант, Мелодрама, комедия, приключения, ...
  • Четыре Рождества / Four Christmases (Сет Гордон, Драма, мелодрама, комедия, ...
  • Билли Эллиот / Billy Elliot (Стивен Долдри, Драма, комедия, музыка, 2000) [ ...
  • Моя ужасная няня / Nanny McPhee (Кирк Джонс, Фэнтези, комедия, семейный, 20 ...
  • Моя ужасная няня 2 / Nanny McPhee and the Big Bang (Сузанна Уайт, фэнтези, ...
  • Моя ужасная няня 2 / Nanny McPhee and the Big Bang (Сузанна Уайт, Фэнтези, ...
  • Информация
    Посетители, находящиеся в группе Гости, не могут оставлять комментарии к данной публикации.