вход на сайт

Имя пользователя :
Пароль :

Восстановление пароля Регистрация
Звездная пыль / Stardust (Мэттью Вон, фэнтези, мелодрама, приключения, семейный, 2007) [HDRip, Профессиональный (полное дублирование)]
Рейтинг:
(голосов: 1)



[img]{THEME}/images/logopost.png[/img]



•Звездная пыль / Stardust •
«Сказка, которую не расскажешь на ночь»
♥ Год выпуска: 2007
♥ Страна: Великобритания, США, Исландия
♥ Производство: Paramount Pictures, Marv Films, Vaughn Productions
♥ Жанр: фэнтези, мелодрама, приключения, семейный

♥ Режиссёр: Мэттью Вон
♥ В ролях: Чарли Кокс, Клер Дэйнс, Мишель Пфайффер, Питер О`Тул, Роберт Де Ниро, Сиенна Миллер, Руперт Эверетт, Йен МакКеллен, Бимбо Харт, Алистер Макинтош, Дэвид Келли, Бен Барнс, Кейт Магован,Мелани Хилл, Генри Кавилл, Натаниель Паркер, Дэрби Хокер, Фрэнк Эллис

♥ Перевод: Профессиональный (полное дублирование)
♥ Субтитры: Отсутствуют

♥ Описание: Маленькая английская деревенька отделена древней стеной от сверхъестественной параллельной вселенной, где царят магия и волшебство. Молодой Тристан Торн опрометчиво обещает самой красивой девушке деревни, что принесёт ей слетевшую с неба звезду, упавшую по ту сторону стены. На своём пути по следам древних легенд Тристан встретит всесильного короля и его заговорщика-сына, могущественную ведьму, капитана пиратского корабля и хитроумного торговца, а также найдёт свою истинную любовь, ключ к пониманию своей сущности и судьбы, о которой он мог только мечтать.♥ Качество: HDRip | [Исх. BDRip 720p] | Сравнение скриншотов c этой раздачей
♥ Продолжительность: 02:07:41

♥ Формат: AVI
♥ Видео кодек: XviD
♥ Аудио кодек: MP3
♥ Видео: 688x288 (2.40:1), 23.976 fps, XviD build 50 ~719 kbps avg, 0.151 bit/pixel
♥ Аудио: 48 kHz, MPEG Layer 3, 2 ch, ~128.00 kbps avg

♥ Дата премьеры (мир): 10 августа 2007
♥ Дата премьеры (РФ): 9 августа 2007, «UPI»

MediaInfo: ▼Text
General
Complete name : D:Stardust.2007_HDRip.avi
Format : AVI
Format/Info : Audio Video Interleave
File size : 782 MiB
Duration : 2h 7mn
Overall bit rate : 857 Kbps
Writing application : VirtualDubMod 1.5.10.3 | www.virtualdub-fr.org || (build 2550/release)
Writing library : VirtualDubMod build 2550/release
Video #0
ID : 0
Format : MPEG-4 Visual
Format profile : Advanced [email protected]
Format settings, BVOP : 1
Format settings, QPel : No
Format settings, GMC : No warppoints
Format settings, Matrix : Custom
Codec ID : XVID
Codec ID/Hint : XviD
Duration : 2h 7mn
Bit rate : 719 Kbps
Width : 688 pixels
Height : 288 pixels
Display aspect ratio : 2.40:1
Frame rate : 23.976 fps
Color space : YUV
Chroma subsampling : 4:2:0
Bit depth : 8 bits
Scan type : Progressive
Compression mode : Lossy
Bits/(Pixel*Frame) : 0.151
Stream size : 657 MiB (84%)
Writing library : XviD 73
Audio #1
ID : 1
Format : MPEG Audio
Format version : Version 1
Format profile : Layer 3
Codec ID : 55
Codec ID/Hint : MP3
Duration : 2h 7mn
Bit rate mode : Constant
Bit rate : 128 Kbps
Channel(s) : 2 channels
Sampling rate : 48.0 KHz
Compression mode : Lossy
Stream size : 117 MiB (15%)
Alignment : Aligned on interleaves
Interleave, duration : 42 ms (1.00 video frame)
Interleave, preload duration : 504 ms
&
3663d176496da8789f4d3534bcd195ddf99fb1b7Звездная пыль / Stardust (Мэттью Вон, фэнтези, мелодрама, приключения, семейный, 2007) [HDRip, Профессиональный (полное дублирование)] Звездная пыль / Stardust (Мэттью Вон, фэнтези, мелодрама, приключения, семейный, 2007) [HDRip, Профессиональный (полное дублирование)] " />

Аплоадер: Админ, дата: 28-05-2013, 14:19, торрент скачан: 359 раз

Понравилась раздача? Посмотрите эти:
  • Погнали! / Getaway (Кортни Соломон, Боевик,Криминал, 2013) [HDRip, Професси ...
  • Звездная пыль / Stardust (Мэттью Вон, Фэнтези, мелодрама, приключения, семе ...
  • Мэрайа Мунди и шкатулка Мидаса / The Adventurer: The Curse of the Midas Box ...
  • Воображариум / Imaginaerum (Стобе Харью, Фэнтези, приключения, мюзикл, драм ...
  • Скуби-Ду! Маска Синего Сокола / Scooby-Doo! Mask Of The Blue Falcon (Оливье ...
  • Звездная пыль / Stardust (Мэттью Вон / фэнтези, приключения, мелодрама / 20 ...
  • Звездная пыль / Stardust (Мэттью Вон, фэнтези, мелодрама, приключения, 2007 ...
  • Звездная пыль / Stardust (Мэттью Вон / Matthew Vaughn, фэнтези, мелодрама, ...
  • Звездная пыль / Stardust (Мэттью Вон / Matthew Vaughn, фэнтези, мелодрама, ...
  • Звездная пыль/Stardust (Мэттью Вон, Фэнтези, 2007) [HDTV, дублированный]
  • Звездная пыль / Stardust (Мэттью Вон, фэнтези, мелодрама, приключения, 2007 ...
  • Звездная пыль / Stardust (Мэттью Вон, фэнтези, мелодрама, приключения, семе ...
  • Чемпионат Европы 2012 / Группа D / 1-й тур / Украина - Швеция / Спорт 1 [11 ...
  • Tank Feat. T.I. & Kris Stephens / Compliments [2012, RnB,Hip-Hop, HDRip]
  • Звездная пыль / Stardust (Мэттью Вон / Matthew Vaughn,фантастика, мелодрама ...
  • Звездная пыль / Stardust (Мэттью Вон, фэнтези, приключения, 2007) [HDRip, п ...
  • Чемпионат Европы 2012 / Группа B / 1-й тур / Германия - Португалия / Спорт ...
  • Татуировщик / The Tattooist (Питер Бюргер, ужасы, триллер, 2007) [HDRip, Пр ...
  • Ничего, кроме правды / Nothing But the Truth (Род Лури, триллер, драма, 200 ...
  • Рука-убийца / Idle Hands (Родмен Флендер,ужасы, триллер, комедия, 1999) [HD ...
  • Информация
    Посетители, находящиеся в группе Гости, не могут оставлять комментарии к данной публикации.