вход на сайт

Имя пользователя :
Пароль :

Восстановление пароля Регистрация
Спайдервик: Хроники / The Spiderwick Chronicles (Марк С. Уотерс, Фэнтези, приключения, семейный, 2008) [BDRip, Профессиональный (многоголосый, закадровый) [LDV]]
Рейтинг:
(голосов: 1)



[img]{THEME}/images/logopost.png[/img]



Спайдервик: Хроники / The Spiderwick Chronicles
«Этот мир ближе, чем ты думаешь»


Год выпуска: 2008
Страна: США
Производство: Gotham Group, The, Mark Canton Productions, Nickelodeon Movies, Spiderwick Productions, The Kennedy
Жанр: Фэнтези, приключения, семейный

Режиссёр: Марк С. Уотерс
В ролях: Фредди Хаймор, Мэри-Луиз Паркер, Ник Нолти, Сара Болджер, Эндрю МакКарти, Джоан Плоурайт, Дэвид Стрэтэйрн, Сет Роген, Мартин Шорт, Джорди Бенаттар

Перевод: Профессиональный (многоголосый, закадровый) [LDV]
Субтитры: Отсутствуют

Описание: Когда семейство Грейс переезжает в старый дом, стоящий на окраине, начинают твориться странные вещи. Пытаясь понять, в чем дело, Джаред обнаруживает дневник Артура Спайдервика и открывает невероятную правду о поместье: здесь находится скрытая от глаз таинственная страна, населенная фантастическими созданиями! Стремясь защитить свой секрет, Джаред, его сестра и брат-близнец переживают незабываемые приключения.



Автор рипа: chopper887

Качество: BDRip
Продолжительность: 01:35:46 час.

Формат: Xvid
Видео кодек: Xvid
Аудио кодек: AC3
Видео: 720x304 (2.37:1), 23.976 fps, XviD build 50 ~1719 kbps avg, 0.33 bit/pixel
Аудио: 48 kHz, AC3 Dolby Digital, 6 ch, ~448.00 kbps avg

Дата премьеры (мир): 31 января 2008
Дата премьеры (РФ): 20 марта 2008, «UPI»

"MediaInfo" ▼General
Complete name : D:The Spiderwick Chronicles.chopper887..avi
Format : AVI
Format/Info : Audio Video Interleave
File size : 1.46 GiB
Duration : 1h 35mn
Overall bit rate : 2 177 Kbps
Writing application : VirtualDubMod 1.5.10.3 | www.virtualdub-fr.org || (build 2550/release)
Writing library : VirtualDubMod build 2550/release

Video
ID : 0
Format : MPEG-4 Visual
Format profile : Advanced [email protected]
Format settings, BVOP : 2
Format settings, QPel : No
Format settings, GMC : No warppoints
Format settings, Matrix : Custom
Codec ID : XVID
Codec ID/Hint : XviD
Duration : 1h 35mn
Bit rate : 1 720 Kbps
Width : 720 pixels
Height : 304 pixels
Display aspect ratio : 2.35:1
Frame rate : 23.976 fps
Color space : YUV
Chroma subsampling : 4:2:0
Bit depth : 8 bits
Scan type : Progressive
Compression mode : Lossy
Bits/(Pixel*Frame) : 0.328
Stream size : 1.15 GiB (79%)
Writing library : XviD 1.2.1 (UTC 2008-12-04)

Audio
ID : 1
Format : AC-3
Format/Info : Audio Coding 3
Mode extension : CM (complete main)
Codec ID : 2000
Duration : 1h 35mn
Bit rate mode : Constant
Bit rate : 448 Kbps
Channel(s) : 6 channels
Channel positions : Front: L C R, Side: L R, LFE
Sampling rate : 48.0 KHz
Bit depth : 16 bits
Compression mode : Lossy
Stream size : 307 MiB (21%)
Alignment : Split accross interleaves
Interleave, duration : 42 ms (1.00 video frame)
Interleave, preload duration : 500 ms

fd4a7de5a5fbf755df116af883e457f361282796Спайдервик: Хроники / The Spiderwick Chronicles (Марк С. Уотерс, Фэнтези, приключения, семейный, 2008) [BDRip, Профессиональный (многоголосый, закадровый) [LDV]] Спайдервик: Хроники / The Spiderwick Chronicles (Марк С. Уотерс, Фэнтези, приключения, семейный, 2008) [BDRip, Профессиональный (многоголосый, закадровый) [LDV]] " />

Аплоадер: Админ, дата: 26-05-2013, 14:00, торрент скачан: 359 раз

Понравилась раздача? Посмотрите эти:
  • Орудие смерти / A-i-deul... (Ли Гю Ман, Триллер, криминал, 2011) [DVDRip, П ...
  • Короткометражка Marvel: Агент Картер / Marvel One-Shot: Agent Carter (Луис ...
  • Мэрайа Мунди и шкатулка Мидаса / The Adventurer: The Curse of the Midas Box ...
  • Мэрайа Мунди и шкатулка Мидаса / The Adventurer: The Curse of the Midas Box ...
  • 42 / 42 (Брайан Хелгеленд, драма, биография, спорт, 2013) [BDRip, Профессио ...
  • Спайдервик: Хроники / The Spiderwick Chronicles (Марк С. Уотерс, Фэнтези, п ...
  • Безопасность не гарантируется / Safety Not Guaranteed (Колин Треворроу, фан ...
  • Призрачный выпускной / Похождения призрака / Promocion fantasma / Promoción ...
  • Спайдервик: Хроники / The Spiderwick Chronicles (Марк С. Уотерс, Фэнтези, п ...
  • Хроники Нарнии: Покоритель Зари / The Chronicles of Narnia: The Voyage of t ...
  • Плохая актриса / Bad Actress (Роберт Ли Кинг, комедия, 2011) [DVDRip, Профе ...
  • Джефф, живущий дома / Jeff, Who Lives at Home (Джей Дюпласс, Марк Дюпласс, ...
  • Захват / Carjacked (Джон Бонито, триллер, 2011)[BDRip, Профессиональный (мн ...
  • Дом вверх дном / Bringing Down the House (Адам Шенкман, комедия, 2003) [BDR ...
  • Спайдервик: Хроники / The Spiderwick Chronicles (Марк С. Уотерс, Фэнтези, Д ...
  • Спайдервик: Хроники / The Spiderwick Chronicles (Марк С. Уотерс / Mark Wate ...
  • Трус / Faintheart (Вито Рокко, Комедия, 2008) [BDRip, Профессиональный (дву ...
  • Супершторм в Сиэтле / Seattle Superstorm (Джейсон Бурк, фантастика, боевик ...
  • Воин Севера / Jadesoturi (Анти-Юсси Аннила, Фэнтези, Драма, Приключения, 20 ...
  • Хроники Нарнии: Лев, Колдунья и Волшебный шкаф / Chronicles of Narnia, The: ...
  • Информация
    Посетители, находящиеся в группе Гости, не могут оставлять комментарии к данной публикации.