вход на сайт

Имя пользователя :
Пароль :

Восстановление пароля Регистрация
Спайдервик: Хроники / The Spiderwick Chronicles (Марк С. Уотерс, Фэнтези, приключения, семейный, 2008) [BDRip-AVC, Профессиональный (многоголосый, закадровый) [LDV]]
Рейтинг:
(голосов: 1)



[img]{THEME}/images/logopost.png[/img]



Спайдервик: Хроники / The Spiderwick Chronicles
«Этот мир ближе, чем ты думаешь»


Год выпуска: 2008
Страна: США
Производство: Gotham Group, The, Mark Canton Productions, Nickelodeon Movies, Spiderwick Productions, The Kennedy
Жанр: Фэнтези, приключения, семейный

Режиссёр: Марк С. Уотерс
В ролях: Фредди Хаймор, Мэри-Луиз Паркер, Ник Нолти, Сара Болджер, Эндрю МакКарти, Джоан Плоурайт, Дэвид Стрэтэйрн, Сет Роген, Мартин Шорт, Джорди Бенаттар

Перевод: Профессиональный (многоголосый, закадровый) [LDV]
Субтитры: Отсутствуют

Описание: Когда семейство Грейс переезжает в старый дом, стоящий на окраине, начинают твориться странные вещи. Пытаясь понять, в чем дело, Джаред обнаруживает дневник Артура Спайдервика и открывает невероятную правду о поместье: здесь находится скрытая от глаз таинственная страна, населенная фантастическими созданиями! Стремясь защитить свой секрет, Джаред, его сестра и брат-близнец переживают незабываемые приключения.



Автор рипа: chopper887

Качество: BDRip-AVC
Продолжительность: 01:35:46 час.

Формат: MKV
Видео кодек: x264
Аудио кодек: AC3
Видео: :1040x442 (2.35:1), 23.976 fps, x264 ~1726 kbps, 0.157 bits/pixel
Аудио: 48 kHz, AC3 Dolby Digital, 6 ch, ~448.00 kbps avg

Дата премьеры (мир): 31 января 2008
Дата премьеры (РФ): 20 марта 2008, «UPI»

"MediaInfo" ▼General
Unique ID : 247721493112945581801340437289448789526 (0xBA5D6C94CBE4F3EC9ADD23A64BE85616)
Complete name : D:The Spiderwick Chronicles.chopper887.mkv
Format : Matroska
File size : 1.45 GiB
Duration : 1h 35mn
Overall bit rate : 2 175 Kbps
Movie name : The Spiderwick Chronicles.chopper887
Encoded date : UTC 2011-11-22 15:35:20
Writing application : mkvmerge v4.8.0 (I Got The...) built on May 24 2011 03:12:58
Writing library : libebml v1.2.0 + libmatroska v1.1.0

Video
ID : 1
Format : AVC
Format/Info : Advanced Video Codec
Format profile : [email protected]
Format settings, CABAC : Yes
Format settings, ReFrames : 10 frames
Codec ID : V_MPEG4/ISO/AVC
Duration : 1h 35mn
Bit rate : 1 726 Kbps
Width : 1 040 pixels
Height : 442 pixels
Display aspect ratio : 2.35:1
Frame rate : 23.976 fps
Color space : YUV
Chroma subsampling : 4:2:0
Bit depth : 8 bits
Scan type : Progressive
Bits/(Pixel*Frame) : 0.157
Stream size : 1.13 GiB (77%)
Title : The Spiderwick Chronicles.chopper887
Writing library : x264 core 116 r2074 2641b9e
Encoding settings : cabac=1 / ref=10 / deblock=1:-2:-1 / analyse=0x3:0x133 / me=umh / subme=10 / psy=1 / psy_rd=0.90:0.05 / mixed_ref=1 / me_range=32 / chroma_me=1 / trellis=2 / 8x8dct=1 / cqm=0 / deadzone=21,11 / fast_pskip=0 / chroma_qp_offset=-3 / threads=3 / sliced_threads=0 / nr=0 / decimate=1 / interlaced=0 / bluray_compat=0 / constrained_intra=0 / bframes=9 / b_pyramid=2 / b_adapt=2 / b_bias=0 / direct=3 / weightb=1 / open_gop=0 / weightp=2 / keyint=250 / keyint_min=23 / scenecut=40 / intra_refresh=0 / rc_lookahead=80 / rc=2pass / mbtree=1 / bitrate=1726 / ratetol=1.0 / qcomp=0.70 / qpmin=0 / qpmax=69 / qpstep=4 / cplxblur=20.0 / qblur=0.5 / ip_ratio=1.40 / aq=1:1.00
Language : English

Audio
ID : 2
Format : AC-3
Format/Info : Audio Coding 3
Mode extension : CM (complete main)
Codec ID : A_AC3
Duration : 1h 35mn
Bit rate mode : Constant
Bit rate : 448 Kbps
Channel(s) : 6 channels
Channel positions : Front: L C R, Side: L R, LFE
Sampling rate : 48.0 KHz
Bit depth : 16 bits
Compression mode : Lossy
Stream size : 307 MiB (21%)
Title : MVO

f24f4e94b1cbc30f09d8137bb04a70e585f2cbe4Спайдервик: Хроники / The Spiderwick Chronicles (Марк С. Уотерс, Фэнтези, приключения, семейный, 2008) [BDRip-AVC, Профессиональный (многоголосый, закадровый) [LDV]] Спайдервик: Хроники / The Spiderwick Chronicles (Марк С. Уотерс, Фэнтези, приключения, семейный, 2008) [BDRip-AVC, Профессиональный (многоголосый, закадровый) [LDV]] " />

Аплоадер: Админ, дата: 26-05-2013, 13:59, торрент скачан: 359 раз

Понравилась раздача? Посмотрите эти:
  • Интервью с вампиром / Interview with the Vampire: The Vampire Chronicles (Н ...
  • Спайдервик: Хроники / The Spiderwick Chronicles (Марк С. Уотерс, Фэнтези, п ...
  • Смерть на похоронах / Death at a Funeral (Нил ЛаБут, комедия, 2010) [BDRip ...
  • Инопланетянин / E.T. the Extra-Terrestrial (Стивен Спилберг, Фантастика, фэ ...
  • Конец света / Fin (Хорхе Торрегросса, триллер, 2012) [BDRip-AVC, Профессион ...
  • Зубная фея 2 / Tooth Fairy 2 (Алекс Замм, комедия, семейный, 2012) [BDRip 7 ...
  • Спайдервик: Хроники / The Spiderwick Chronicles (Марк С. Уотерс, Фэнтези, п ...
  • Пингвины мистера Поппера/ Mr. Poppers Penguins (Марк С. Уотерс, комедия, се ...
  • Властелин измерений / Grande ourse - La cle des possibles (Патрис Сов, фант ...
  • Хранитель времени / Hugo (Мартин Скорсезе, Драма, 2011) [BDRip-AVC, Професс ...
  • Хранитель времени / Hugo (Мартин Скорсезе, Драма, 2011) [BDRip-AVC, Професс ...
  • Такие разные близнецы / Jack and Jill (Деннис Дуган, комедия, 2011) [BDRip- ...
  • Папина дочка / College Road Trip (Роджер Камбл, комедия, драма, приключения ...
  • Похищенная / A Lonely Place to Die (Джулиан Джилби, триллер, криминал, прик ...
  • Курьер / The Courier (Хани Абу-Ассад, боевик, триллер, криминал, 2011) [HDR ...
  • Лица в толпе / Faces in the Crowd (Жюльен Манья, триллер, драма, 2011) [BDR ...
  • Ева: Искусственный разум / Eva (Кике Маильо, фантастика, фэнтези, драма, 20 ...
  • Мост в Терабитию / Bridge to Terabithia (Габор Ксупо, фэнтези, драма, прикл ...
  • Повелитель стихий / The Last Airbender (М. Найт Шьямалан, боевик, фэнтези, ...
  • Похищенная / A Lonely Place to Die (Джулиан Джилби, триллер, криминал, прик ...
  • Викинги / Outlander (Ховард МакКейн, Фантастика, боевик, приключения, 2008) ...
  • Mylene Farmer / Du Temps [2011, Pop, HDTVRip]
  • Mylene Farmer / Bleu Noir [2011, Pop, HDTVRip]
  • Спайдервик: Хроники / The Spiderwick Chronicles (Марк С. Уотерс, Фэнтези, Д ...
  • Спайдервик: Хроники / The Spiderwick Chronicles (Марк С. Уотерс / Mark Wate ...
  • Информация
    Посетители, находящиеся в группе Гости, не могут оставлять комментарии к данной публикации.