вход на сайт

Имя пользователя :
Пароль :

Восстановление пароля Регистрация
Призрачный патруль / R.I.P.D. (Роберт Швентке, фэнтези, боевик, комедия, криминал , 2013) [HDRip, Профессиональный (полное дублированние)]
Рейтинг:
(голосов: 1)



[img]{THEME}/images/logopost.png[/img]



Призрачный патруль / R.I.P.D.
«Они защищают наш мир от гостей с того света»



Год выпуска: 2013 год
Страна: США
Производство: Universal Pictures, Original Film, Dark Horse Entertainment
Жанр: Фэнтези, боевик, комедия, криминал

Режиссер: Роберт Швентке
В ролях: Райан Рейнольдс, Джефф Бриджес, Кевин Бэйкон, Мэри-Луиз Паркер, Стефани Зостак, Роберт Неппер, Мариса Миллер, Джеймс Хонг, Майк О’Мэлли, Девин Рэтрей

Перевод: Профессиональный (полное дублированние)
Субтитры: Отсутствуют

Описание: Детективы из загробного департамента расследуют преступления по ту сторону могилы и гоняются за не в меру ретивой нечистью. Молодой коп, после гибели от руки неизвестного злоумышленника угодивший в мир иной, в обмен на помощь при расследовании собственного убийства обязуется следующие сто лет посвятить службе в R.I.P.D. и, получив в напарники брутального стрелка эпохи вестернов, выходит на борьбу с неупокоившимся злом.


МедиаИнфо ▼Общее
Полное имя : D:ФильмыДля просмотраR.I.P.D.2013.D.HDRip.avi
Формат : AVI
Формат/Информация : Audio Video Interleave
Размер файла : 1,46 Гбайт
Продолжительность : 1 ч. 35 м.
Общий поток : 2175 Кбит/сек
Программа кодирования : VirtualDubModRus 1.5.10.2 (build 2542/release)
Библиотека кодирования : VirtualDubMod build 2542/release

Видео
Идентификатор : 0
Формат : MPEG-4 Visual
Профиль формата : Advanced [email protected]
Параметр BVOP формата : 1
Параметр QPel формата : Нет
Параметр GMC формата : Без точки перехода
Параметр матрицы формата : Выборочная
Идентификатор кодека : XVID
Идентификатор кодека/Подсказка : XviD
Продолжительность : 1 ч. 35 м.
Битрейт : 1718 Кбит/сек
Ширина : 720 пикселей
Высота : 304 пикселя
Соотношение сторон : 2,35:1
Частота кадров : 23,976 кадра/сек
Цветовое пространство : YUV
Субдискретизация насыщенности : 4:2:0
Битовая глубина : 8 бит
Тип развёртки : Прогрессивная
Метод сжатия : С потерями
Бит/(Пиксели*Кадры) : 0.327
Размер потока : 1,15 Гбайт (79%)
Библиотека кодирования : XviD 1.2.1 (UTC 2008-12-04)

Аудио
Идентификатор : 1
Формат : AC-3
Формат/Информация : Audio Coding 3
Расширение режима : CM (complete main)
Параметр Endianness формата : Big
Идентификатор кодека : 2000
Продолжительность : 1 ч. 35 м.
Вид битрейта : Постоянный
Битрейт : 448 Кбит/сек
Каналы : 6 каналов
Расположение каналов : Front: L C R, Side: L R, LFE
Частота : 48,0 КГц
Битовая глубина : 16 бит
Метод сжатия : С потерями
Размер потока : 307 Мбайт (21%)
Выравнивание : Разделение по промежуткам
Продолжительность промежутка : 42 мс. (1,00 видеокадр)
Время предзагрузки промежутка : 500 мс.


Премьера (мир): 17 июля 2013
Премьера (РФ): 18 июля 2013
Релиз на Blu-Ray: 14 ноября 2013, «Двадцатый Век Фокс СНГ»
Релиз на DVD: 14 ноября 2013, «Двадцатый Век Фокс СНГ»


Качество: HDRip
Продолжительность: 01:35:55

Формат: AVI
Видео кодек: XviD
Аудио кодек: Audio Coding 3
Видео: (720x304), (2,35:1), (16:9), 23,976 кадра/сек, 1718Кбит/c, 0.327
Формат аудио: Audio Coding 3, 48,0 КГц, 6 каналов, 448 Кбит/сек|Rus|

51d2e1e0bb812dcbf4f090043168ca0df2659d35Призрачный патруль / R.I.P.D. (Роберт Швентке, фэнтези, боевик, комедия, криминал , 2013) [HDRip, Профессиональный (полное дублированние)] Призрачный патруль / R.I.P.D. (Роберт Швентке, фэнтези, боевик, комедия, криминал , 2013) [HDRip, Профессиональный (полное дублированние)] " />

Аплоадер: Админ, дата: 7-11-2013, 11:32, торрент скачан: 359 раз

Понравилась раздача? Посмотрите эти:
  • Бойфренд из будущего / About Time (Ричард Кёртис, Фантастика, драма, комеди ...
  • Призрачный патруль / R.I.P.D. (Роберт Швентке, фантастика, фэнтези, боевик, ...
  • [3D] Призрачный патруль / R.I.P.D. (Роберт Швентке, Фантастика, фэнтези, бо ...
  • Одноклассники 2 / Grown Ups 2 (Деннис Дуган, Комедия, 2013) [BDRip, Професс ...
  • Мачете убивает / Machete Kills (Роберт Родригес, боевик, комедия, 2013) [HD ...
  • Призрачный патруль / R.I.P.D. (Роберт Швентке, фэнтези, боевик, комедия, кр ...
  • Призрачный патруль / R.I.P.D. (Роберт Швентке, фэнтези, боевик, комедия, кр ...
  • Призрачный патруль / R.I.P.D. (Роберт Швентке, фэнтези, боевик, комедия, кр ...
  • Призрачный патруль / R.I.P.D. (Роберт Швентке, фэнтези, боевик, комедия, кр ...
  • Призрачный патруль / R.I.P.D. (Роберт Швентке, фэнтези, боевик, комедия, кр ...
  • Прошлое / Le passé (Асгар Фархади, Драма, детектив , 2013) [HDRip, Авторски ...
  • Призрачный патруль / R.I.P.D. (Роберт Швентке, Фэнтези, боевик, комедия, кр ...
  • Призрачный патруль / R.I.P.D. (Роберт Швентке, фэнтези, боевик, комедия, кр ...
  • Кровью и потом: Анаболики / Pain & Gain (Майкл Бэй, криминал, комедия, трил ...
  • Миллион для чайников / The Brass Teapot (Рамаа Мосли, Фэнтези, триллер, ком ...
  • Миллион для чайников / The Brass Teapot (Рамаа Мосли, Фэнтези, триллер, ком ...
  • [Трейлер] Призрачный патруль / R.I.P.D. (Роберт Швентке, боевик, комедия) [ ...
  • Даю год / I Give It a Year (Дэн Мазер, Мелодрама, комедия, 2013) [DVDRip, Д ...
  • [Трейлер] Призрачный патруль / R.I.P.D. (Роберт Швентке, боевик, комедия) ...
  • Жил-был тигр / Ek Tha Tiger (Кабир Кхан, боевик, триллер , 2012) [ HDRip, ...
  • Легенда о МорДу / The Legend of MorDu (Брайан Ларсен, Короткометражный, ска ...
  • Боец из трущоб / Gutter King (Кейт Алан Моррис / Keith Alan Morris, боевик, ...
  • Гениальный папа / Father of Invention (Трент Купер, Драма, комедия, 2010) [ ...
  • Глаз шторма / The Eye of the Storm (Фред Скеписи, Драма, 2011) [HDRip, Проф ...
  • Сдохни, Джон Такер / John Tucker Must Die (Бетти Томас, мелодрама, комедия, ...
  • Информация
    Посетители, находящиеся в группе Гости, не могут оставлять комментарии к данной публикации.