вход на сайт

Имя пользователя :
Пароль :

Восстановление пароля Регистрация
Мэрайа Мунди и шкатулка Мидаса / The Adventurer: The Curse of the Midas Box (Джонатан Ньюман, фэнтези, приключения, семейный, 2013) [DVDRip-AVC, Профессиональный (многоголосый, закадровый)]
Рейтинг:
(голосов: 1)



[img]{THEME}/images/logopost.png[/img]



« Мэрайа Мунди и шкатулка Мидаса / The Adventurer: The Curse of the Midas Box »

¤The new name for adventure¤

Информация о фильме
Год выпуска: 2013
Страна: Великобритания
Производство: Afrodita Audiovisual, A.I.E., Arcadia Motion Pictures, Cinema One
Жанр: фэнтези, приключения, семейный

Режиссёр: Джонатан Ньюман / Jonathan Newman
В ролях: Майкл ШинЛина ХидиСэм НилЙоан ГриффитАнайрин БарнардКили ХоузТристан ГеммиллДэниэл ВильдеМелла КарронКсавьер Аткинс

Перевод: Профессиональный (многоголосый, закадровый)
Озвучка: не известно
Субтитры: нет


Описание
¤ ¤ ¤
- ...Мир семнадцатилетнего Мэрайа Мунди меняется, когда его родители внезапно исчезают, оставив юношу и его брата Феликса на произвол судьбы... -
¤ ¤ ¤





Зрителям, достигшим 16 лет



Тех.Данные
Качество: DVDRip-AVC
Продолжительность: ~ 01:34:35 часа

Формат: Matroska-MKV-
Видео кодек: AVC [email protected]
Аудио кодек: Audio Coding 3
Видео: [email protected] (16:9), 25 fps, AVC ~1817 kbps avg, 0.175 bit/pixel
Аудио: 48 kHz, AC3 Dolby Digital, 3/2 (L,C,R,l,r) + L,F,E ch, ~384 kbps

▼TextОбщее
Уникальный идентификатор : 244611396996148207200069937093969205181 (0xB8067100FCF5B53287CC0795182857BD)
Полное имя : E:DownloadsМэрайа Мунди и шкатулка Мидаса.2013.DVDRip-AVC.mkv
Формат : Matroska
Версия формата : Version 2
Размер файла : 1,45 Гбайт
Продолжительность : 1 ч. 34 м.
Общий поток : 2202 Кбит/сек
Дата кодирования : UTC 2013-10-30 08:38:29
Программа кодирования : mkvmerge v6.1.0 (Old Devil) built on Mar 4 2013 09:10:42
Библиотека кодирования : libebml v1.3.0 + libmatroska v1.4.0

Видео
Идентификатор : 1
Формат : AVC
Формат/Информация : Advanced Video Codec
Профиль формата : [email protected]
Параметр CABAC формата : Да
Параметр ReFrames формата : 6 кадров
Идентификатор кодека : V_MPEG4/ISO/AVC
Продолжительность : 1 ч. 34 м.
Битрейт : 1817 Кбит/сек
Ширина : 720 пикселей
Высота : 576 пикселей
Соотношение сторон : 16:9
Частота кадров : 25,000 кадров/сек
Стандарт вещания : PAL
Цветовое пространство : YUV
Субдискретизация насыщенности : 4:2:0
Битовая глубина : 8 бит
Тип развёртки : Прогрессивная
Бит/(Пиксели*Кадры) : 0.175
Размер потока : 1,17 Гбайт (81%)
Библиотека кодирования : x264 core 138 r2356 a1d3d17
Настройки программы : cabac=1 / ref=6 / deblock=1:-2:-1 / analyse=0x3:0x113 / me=umh / subme=10 / psy=1 / psy_rd=1.00:0.05 / mixed_ref=1 / me_range=32 / chroma_me=1 / trellis=2 / 8x8dct=1 / cqm=0 / deadzone=21,11 / fast_pskip=0 / chroma_qp_offset=-3 / threads=9 / lookahead_threads=1 / sliced_threads=0 / nr=0 / decimate=0 / interlaced=0 / bluray_compat=0 / constrained_intra=0 / bframes=8 / b_pyramid=2 / b_adapt=2 / b_bias=0 / direct=3 / weightb=1 / open_gop=0 / weightp=2 / keyint=250 / keyint_min=25 / scenecut=40 / intra_refresh=0 / rc=2pass / mbtree=0 / bitrate=1817 / ratetol=1.0 / qcomp=0.60 / qpmin=0 / qpmax=69 / qpstep=4 / cplxblur=20.0 / qblur=0.5 / ip_ratio=1.40 / pb_ratio=1.30 / aq=1:1.00
Default : Да
Forced : Нет

Аудио
Идентификатор : 2
Формат : AC-3
Формат/Информация : Audio Coding 3
Расширение режима : CM (complete main)
Идентификатор кодека : A_AC3
Продолжительность : 1 ч. 34 м.
Вид битрейта : Постоянный
Битрейт : 384 Кбит/сек
Каналы : 6 каналов
Расположение каналов : Front: L C R, Side: L R, LFE
Частота : 48,0 КГц
Битовая глубина : 16 бит
Метод сжатия : С потерями
Размер потока : 260 Мбайт (17%)
Default : Да
Forced : Нет

_______________________________________________________________________________
f626ba793608651038624ffca965be38bace3af7Мэрайа Мунди и шкатулка Мидаса / The Adventurer: The Curse of the Midas Box (Джонатан Ньюман, фэнтези, приключения, семейный, 2013) [DVDRip-AVC, Профессиональный (многоголосый, закадровый)] Мэрайа Мунди и шкатулка Мидаса / The Adventurer: The Curse of the Midas Box (Джонатан Ньюман, фэнтези, приключения, семейный, 2013) [DVDRip-AVC, Профессиональный (многоголосый, закадровый)] " />

Аплоадер: Админ, дата: 2-11-2013, 11:01, торрент скачан: 359 раз

Понравилась раздача? Посмотрите эти:
  • Мэрайа Мунди и шкатулка Мидаса / The Adventurer: The Curse of the Midas Box ...
  • Мэрайа Мунди и шкатулка Мидаса / The Adventurer: The Curse of the Midas Box ...
  • Мэрайа Мунди и шкатулка Мидаса / The Adventurer: The Curse of the Midas Box ...
  • Мэрайа Мунди и шкатулка Мидаса / The Adventurer: The Curse of the Midas Box ...
  • Мэрайа Мунди и шкатулка Мидаса / The Adventurer: The Curse of the Midas Box ...
  • Погнали! / Getaway (Кортни Соломон, боевик, криминал, 2013) [BDRip 1080p, П ...
  • [NG] Комета века / Comet of the century (документальный, 2013) [HDTVRip-AVC ...
  • Околофутбола (Антон Борматов, драма, криминал, 2013) [DVDRip-AVC, Не требуе ...
  • Усатый нянь (Владимир Грамматиков, комедия, семейный, 1977) [DVDRip-AVC, Не ...
  • Интимные места (Наталья Меркулова, Алексей Чупов, драма, мелодрама, 2013) [ ...
  • Мэрайа Мунди и шкатулка Мидаса / The Adventurer: The Curse of the Midas Box ...
  • Мэрайа Мунди и шкатулка Мидаса / The Adventurer: The Curse of the Midas Box ...
  • Незнакомец внутри / The Stranger Within (Adam Neutzsky-Wulff, триллер, 2013 ...
  • Филадельфия / Philadelphia (Джонатан Демме, Драма, 1993) [BDRip-AVC, Профес ...
  • Голливудский мусор / Garbage (Филипп Волкен, драма, комедия, 2013) [HDTVRip ...
  • Рикошет / Ricochet (Ник Гомез, драма, детектив, 2011) [BDRip-AVC, Профессио ...
  • Новые технологии войны / The New Technology of War [Часть 1] (документальны ...
  • Новые технологии войны / The New Technology of War [Часть 2] (документальны ...
  • Дикий запад. Кино и реальность / The Wild And The West (документальный, 200 ...
  • Огонь Кристиана Лубутена 3D / FEU: Crazy Horse Paris (Бруно Халлин, Докумен ...
  • 21 и больше / 21 & Over (Джон Лукас, Скотт Мур, комедия, 2013) [DVDRip-AVC, ...
  • Убей ради меня / Kill for Me (Майкл Гринспен, триллер, драма, 2013) [DVDRip ...
  • Суррогат / The Sessions (Бен Луин, Драма, 2012) [BDRip-AVC, Профессиональны ...
  • Чемпионат Англии 2012-2013 / 25-й тур / Обзор / Суббота / BBC Sport [2013 г ...
  • Иностранный легион / La cité (Ким Нгуйен / Kim Nguyen, драма, 2010) [DVDRip ...
  • Информация
    Посетители, находящиеся в группе Гости, не могут оставлять комментарии к данной публикации.