вход на сайт

Имя пользователя :
Пароль :

Восстановление пароля Регистрация
Из 13 в 30 / 13 Going on 30 (Гари Виник, фэнтези, мелодрама, комедия, 2004) [BDRip-AVC, Дублированный + Субтитры]
Рейтинг:
(голосов: 1)



[img]{THEME}/images/logopost.png[/img]



Из 13 в 30 / 13 Going on 30
«У каждой женщины есть маленькая тайна и она действительно удивительна»
Год выпуска: 2004
Страна: США
Производство: Revolution Studios, Thirteen Productions LLC
Жанр: фэнтези, мелодрама, комедия

Режиссёр: Гари Виник
В ролях: Дженнифер Гарнер, Марк Руффало, Джуди Грир, Энди Серкис, Кэти Бейкер, Фил Ривз, Сэмюэл Болл, Марсия ДеБонис, Криста Б. Аллен, Шон Маркетт...

Перевод: Дублированный
Субтитры: Русские, Английские (отключаемые)

Описание: Дети так отчаянно хотят быть взрослыми, не догадываясь, что пройдут годы, и они так же страстно захотят обратного. Но так как в нашем мире все еще случаются чудеса, некоторым не приходится ждать долго, чтобы убедиться в этом. Сегодня Дженни всего 13 и она очень хочет стать большой. Видимо, ее желание попадает по нужному адресу, поскольку на утро она просыпается… 30-летней красавицей!

Словно кто-то перемотал пленку с 17 годами жизни. Самое время кричать «ура»? Только вот какая штука: для всех эти годы прошли обычным порядком, но во взрослой Дженни, оказывается душа девочки-подростка, что постоянно приводит к забавным недоразумениям и ставит в тупик окружающих…



Премьера (мир): 14 апреля 2004
Премьера (РФ): 15 июля 2004
Качество: BDRip-AVC
Продолжительность: 01:37:47

Формат: MKV
Видео кодек: AVC
Аудио кодек: AC3
Видео: 928x496 (1,85:1), 23,976 fps, AVC ~1406 kbps, 0.127 bit/pixel
Аудио: 48 kHz, AC3 Dolby Digital, 2 ch, ~192.00 kbps
MediaInfo ▼Общее
Уникальный идентификатор : 227132901438364396558988156839323853234 (0xAAE034A3BF0CB8E1B38ECCF545BD61B2)
Полное имя : D:13 Going on 30.BDRip-AVC.mkv
Формат : Matroska
Версия формата : Version 4 / Version 2
Размер файла : 1,09 Гбайт
Продолжительность : 1 ч. 37 м.
Общий поток : 1599 Кбит/сек
Название фильма : Из 13 в 30 / 13 Going on 30 (2004) BDRip-AVC
Дата кодирования : UTC 2014-01-23 13:42:16
Программа кодирования : mkvmerge v6.6.0 (The Edge Of The In Between) built on Dec 1 2013 17:55:00
Библиотека кодирования : libebml v1.3.0 + libmatroska v1.4.1

Видео
Идентификатор : 1
Формат : AVC
Формат/Информация : Advanced Video Codec
Профиль формата : [email protected]
Параметр CABAC формата : Да
Параметр ReFrames формата : 8 кадров
Идентификатор кодека : V_MPEG4/ISO/AVC
Продолжительность : 1 ч. 37 м.
Битрейт : 1406 Кбит/сек
Ширина : 928 пикселей
Высота : 496 пикселей
Соотношение сторон : 1,85:1
Режим частоты кадров : Постоянный
Частота кадров : 23,976 кадра/сек
Цветовое пространство : YUV
Субдискретизация насыщенности : 4:2:0
Битовая глубина : 8 бит
Тип развёртки : Прогрессивная
Бит/(Пиксели*Кадры) : 0.127
Размер потока : 962 Мбайт (86%)
Библиотека кодирования : x264 core 138 r2358 9e941d1
Настройки программы : cabac=1 / ref=8 / deblock=1:-1:-1 / analyse=0x3:0x2 / me=umh / subme=11 / psy=1 / psy_rd=1.00:0.04 / mixed_ref=1 / me_range=48 / chroma_me=1 / trellis=2 / 8x8dct=1 / cqm=0 / deadzone=21,11 / fast_pskip=0 / chroma_qp_offset=-3 / threads=8 / lookahead_threads=1 / sliced_threads=0 / nr=0 / decimate=1 / interlaced=0 / bluray_compat=0 / constrained_intra=0 / bframes=11 / b_pyramid=2 / b_adapt=1 / b_bias=0 / direct=3 / weightb=1 / open_gop=0 / weightp=2 / keyint=240 / keyint_min=23 / scenecut=40 / intra_refresh=0 / rc_lookahead=40 / rc=2pass / mbtree=1 / bitrate=1406 / ratetol=1.0 / qcomp=0.60 / qpmin=0 / qpmax=69 / qpstep=4 / cplxblur=20.0 / qblur=0.5 / vbv_maxrate=62500 / vbv_bufsize=78125 / nal_hrd=none / ip_ratio=1.40 / aq=1:1.00
Default : Да
Forced : Нет

Аудио
Идентификатор : 2
Формат : AC-3
Формат/Информация : Audio Coding 3
Расширение режима : CM (complete main)
Параметр Endianness формата : Big
Идентификатор кодека : A_AC3
Продолжительность : 1 ч. 37 м.
Вид битрейта : Постоянный
Битрейт : 192 Кбит/сек
Каналы : 2 канала
Расположение каналов : Front: L R
Частота : 48,0 КГц
Битовая глубина : 16 бит
Метод сжатия : С потерями
Размер потока : 134 Мбайт (12%)
Заголовок : Дублированный
Язык : Russian
Default
63b4e360a8a9081ce178596f22e3db87e3f0aeefИз 13 в 30 / 13 Going on 30 (Гари Виник, фэнтези, мелодрама, комедия, 2004) [BDRip-AVC, Дублированный + Субтитры] Из 13 в 30 / 13 Going on 30 (Гари Виник, фэнтези, мелодрама, комедия, 2004) [BDRip-AVC, Дублированный + Субтитры] " />

Аплоадер: Админ, дата: 24-01-2014, 01:25, торрент скачан: 359 раз

Понравилась раздача? Посмотрите эти:
  • 50 первых поцелуев / 50 First Dates (Питер Сигал, Мелодрама, комедия, 2004) ...
  • Кадиллак Рекордс / Cadillac Records (Дарнелл Мартин, драма, мелодрама, биог ...
  • Бунраку / Bunraku (Гай Моше, боевик, триллер, драма, 2010) [BDRip-AVC, Проф ...
  • Одноклассники 2 / Grown Ups 2 (Деннис Дуган, Комедия, 2013) [BDRip-AVC, Про ...
  • Византия / Byzantium (Нил Джордан, Фэнтези, триллер, драма, 2012) [BDRip 10 ...
  • Мальчишник: Часть III / The Hangover Part III (Тодд Филлипс, комедия, 2013) ...
  • Ананасовый экспресс: Сижу, курю / Pineapple Express (Дэвид Гордон Грин, бое ...
  • Иллюзия обмана / Now You See Me [Extended Cut] (Луи Летерье, триллер, крими ...
  • Из 13 в 30 / 13 Going on 30 (Гари Виник, Комедия, мелодрама, фантастика, 20 ...
  • Из 13 в 30 / 13 Going on 30 (Гари Виник, Комедия, мелодрама, 2004) [HDRip, ...
  • Ослепленный желаниями / Bedazzled (Харольд Рэмис, фэнтези, комедия, мелодра ...
  • Поймай толстуху, если сможешь / Identity Thief [Theatrical Cut] (Сет Гордон ...
  • Мама / Mama (Андрес Мускетти, ужасы, фэнтези, триллер, 2013) [BDRip-AVC, Пр ...
  • Даю год / I Give It a Year (Дэн Мазер, мелодрама, комедия, 2012) [BDRip-AVC ...
  • Из 13 в 30 / 13 Going On 30 [2004 / BDRip, Дубляж]
  • Главное - не бояться! / A Little Bit of Heaven (Николь Кэссел / Nicole Kass ...
  • Из 13 в 30 / 13 Going on 30 (Гари Виник, комедия, мелодрама, 2004) [BDRip-A ...
  • [EN] Из 13 в 30 / 13 Going on 30 (Гари Виник, комедия, 2004) [DVDRip, ориг ...
  • Из 13 в 30 / 13 Going On 30 (Гари Виник, Фэнтези, комедия, мелодрама, 2004) ...
  • Из 13 в 30 / 13 Going On 30 (Гари Виник, Фэнтези, комедия, мелодрама, 2004) ...
  • Информация
    Посетители, находящиеся в группе Гости, не могут оставлять комментарии к данной публикации.