вход на сайт

Имя пользователя :
Пароль :

Восстановление пароля Регистрация
Санта Клаус 3 / The Santa Clause 3: Escape Clause (Майкл Лембек, Фэнтези, комедия, семейный, 2006) [DVDRip-AVC, Профессиональный (многоголосый, закадровый)]
Рейтинг:
(голосов: 1)



[img]{THEME}/images/logopost.png[/img]



• Санта Клаус 3 / The Santa Clause 3: Escape Clause •
«His time at the North Pole is about to go South»
♥ Год выпуска: 2006
♥ Страна: США
♥ Производство: Walt Disney Pictures
♥ Жанр: Фэнтези, комедия, семейный

♥ Режиссёр: Майкл Лембек
♥ В ролях: Тим Аллен, Элизабет Митчелл, Эрик Ллойд, Джадж Рейнхольд, Венди Крюсон, Спенсер Бреслин, Лилиана Мами, Мартин Шорт

♥ Перевод: Профессиональный (многоголосый, закадровый)
♥ Субтитры: Отсутствуют

♥ Описание: Рискуя выдать тайну Северного полюса, Скотт Кэлвин, а по совместительству Санта Клаус, приглашает своих родственников отпраздновать Рождество, а заодно и предстоящее появление на свет сына Клауса, которого вот-вот должна родить его жена Кэрол. В итоге Скотт вместе с его большим семейством и главным эльфом Кертисом вынужден противостоять коварному злодею Джеку Фросту, который намеревается отобрать Рождество у Санта-Клауса и захватить власть на Северном полюсе…
♥ Качество: DVDRip-AVC
♥ Продолжительность: 01:28:11

♥ Формат: MKV
♥ Видео кодек: H.264
♥ Аудио кодек: AC3
♥ Видео: 720x386 (1.85:1), 25.000 fps, H.264, ~849 Kbps, 0.122 bit/pixel
♥ Аудио: 48 kHz, AC3, 2 ch, ~192 kbps avg

"Mediainfo" ▼TextGeneral
Unique ID : 223900397353836654535820570096165110382 (0xA871A5E22C9CE68D9D099F7421F6C26E)
Complete name : Santa.3.DVDRip-AVC.mkv
Format : Matroska
Format version : Version 2
File size : 658 MiB
Duration : 1h 28mn
Overall bit rate : 1 042 Kbps
Encoded date : UTC 2012-12-31 00:00:09
Writing application : mkvmerge v5.8.0 (No Sleep / Pillow) built on Sep 2 2012 15:37:04
Writing library : libebml v1.2.3 + libmatroska v1.3.0

Video
ID : 1
Format : AVC
Format/Info : Advanced Video Codec
Format profile : High [email protected]
Format settings, CABAC : Yes
Format settings, ReFrames : 15 frames
Codec ID : V_MPEG4/ISO/AVC
Duration : 1h 28mn
Bit rate : 849 Kbps
Width : 720 pixels
Height : 386 pixels
Display aspect ratio : 1.85:1
Frame rate mode : Constant
Frame rate : 25.000 fps
Color space : YUV
Chroma subsampling : 4:2:0
Bit depth : 10 bits
Scan type : Progressive
Bits/(Pixel*Frame) : 0.122
Stream size : 523 MiB (80%)
Writing library : x264 core 129 r2230+696+35 805d074 tMod [[email protected] X86_64]
Encoding settings : cabac=1 / ref=15 / deblock=1:-3:-3 / analyse=0x3:0x133 / me=tesa / subme=11 / psy=1 / fade_compensate=0.00 / psy_rd=1.00:0.15 / mixed_ref=1 / me_range=32 / chroma_me=1 / trellis=2 / 8x8dct=1 / cqm=0 / deadzone=21,11 / fast_pskip=1 / chroma_qp_offset=-3 / threads=2 / lookahead_threads=1 / sliced_threads=0 / nr=0 / decimate=1 / interlaced=0 / bluray_compat=0 / constrained_intra=0 / fgo=0 / bframes=9 / b_pyramid=2 / b_adapt=2 / b_bias=0 / direct=2 / weightb=1 / open_gop=0 / weightp=1 / keyint=240 / keyint_min=25 / scenecut=40 / intra_refresh=0 / rc_lookahead=60 / rc=2pass / mbtree=1 / bitrate=849 / ratetol=1.0 / qcomp=0.60 / qpmin=0 / qpmax=81 / qpstep=4 / cplxblur=20.0 / qblur=0.5 / ip_ratio=1.40 / aq=1:1.00
Language : English
Default : Yes
Forced : No
Color primaries : BT.709
Transfer characteristics : BT.709
Matrix coefficients : BT.709

Audio
ID : 2
Format : AC-3
Format/Info : Audio Coding 3
Format profile : Dolby Digital
Mode extension : CM (complete main)
Format settings, Endianness : Big
Codec ID : A_AC3
Duration : 1h 28mn
Bit rate mode : Constant
Bit rate : 192 Kbps
Channel(s) : 2 channels
Channel positions : Front: L R
Sampling rate : 48.0 KHz
Bit depth : 16 bits
Compression mode : Lossy
Delay relative to video : 928ms
Stream size : 121 MiB (18%)
Language : Russian
Default : Yes
Forced : No

Релиз Группы "Virtus"


Стол заказов / Вступление в РГ / Бл
2d61437ae2513a59789cd41fea14fa243273fbe8Санта Клаус 3 / The Santa Clause 3: Escape Clause (Майкл Лембек, Фэнтези, комедия, семейный, 2006) [DVDRip-AVC, Профессиональный (многоголосый, закадровый)] Санта Клаус 3 / The Santa Clause 3: Escape Clause (Майкл Лембек, Фэнтези, комедия, семейный, 2006) [DVDRip-AVC, Профессиональный (многоголосый, закадровый)] " />

Аплоадер: Админ, дата: 9-01-2014, 23:31, торрент скачан: 359 раз

Понравилась раздача? Посмотрите эти:
  • Санта Клаус / The Santa Clause (Джон Пасквин, Фэнтези, драма, комедия, семе ...
  • Санта Клаус 2 / The Santa Clause 2 (Майкл Лембек, Фэнтези, комедия, семейн ...
  • Санта Клаус 3 / The Santa Clause 3: The Escape Clause (Майкл Лембек, Фэнтез ...
  • Санта Клаус / The Santa Clause (Джон Пасквин, фэнтези, драма, комедия, семе ...
  • Каникулы Санта-Клауса / Santa Who? (Уильям Дир, Фэнтези, комедия, 2000) [DV ...
  • Санта Клаус 2 / The Santa Clause 2 (Майкл Лембек, Фэнтези, комедия, семейны ...
  • FLO / NRG [2012, Pop, Dance, MasterRip]
  • Верное дельце / Une pure affaire (Александр Коффре, Боевик, Комедия, Кримин ...
  • Спайдервик: Хроники / The Spiderwick Chronicles (Марк С. Уотерс, Фэнтези, п ...
  • UFC The Ultimate 100 Knockouts - PPV [MMA,2013, HDTVRip 720p]
  • UFC - Best Of 2012 Year In Review[MMA,2013, BDRip 540p]
  • Смерть на похоронах / Death at a Funeral (Нил ЛаБут, комедия, 2010) [BDRip ...
  • Зубная фея 2 / Tooth Fairy 2 (Алекс Замм, комедия, семейный, 2012) [BDRip 7 ...
  • [Трилогия] Санта Клаус / The Santa Clause (Майкл Лембек, фэнтези, комедия, ...
  • Папина дочка / College Road Trip (Роджер Камбл, комедия, драма, приключения ...
  • Странная жизнь Тимоти Грина / The Odd Life of Timothy Green (Питер Хеджес, ...
  • В поисках Санта Лапуса / The Search for Santa Paws (Роберт Винс, фэнтези, п ...
  • Приготовление и начало / Prep And Landing (Кевин Детерс, мультфильм, коротк ...
  • Футбольный клуб / Чемпионат Европы 2012 / НТВ+ [Футбол, 08.06.2012, HDTVRip ...
  • Chelsea - Season Review 2011-12 / Челси - Обзор Сезона 2011-12 [ Футбол, 20 ...
  • Формула 1. Сезон 2012. Этап 13 из 20. Гран-При Италии, Квалификация. [2012 ...
  • Mylene Farmer / Du Temps [2011, Pop, HDTVRip]
  • Mylene Farmer / Bleu Noir [2011, Pop, HDTVRip]
  • Санта Клаус 2 / The Santa Clause 2 (Майкл Лембек, фэнтези, комедия, семейн ...
  • Санта Клаус / The Santa Clause (1-3) (Джон Пасквин, Майкл Лембек, 1994, 200 ...
  • Информация
    Посетители, находящиеся в группе Гости, не могут оставлять комментарии к данной публикации.