вход на сайт

Имя пользователя :
Пароль :

Восстановление пароля Регистрация
Санта Клаус 2 / The Santa Clause 2 (Майкл Лембек, Фэнтези, комедия, семейный, 2002) [BDRip-AVC, Профессиональный (многоголосый, закадровый)]
Рейтинг:
(голосов: 1)



[img]{THEME}/images/logopost.png[/img]



Санта Клаус 2 / The Santa Clause 2

«Whats Christmas Fun without some Reindeer Games?»

Год выпуска: 2002
Страна: США
Производство: Walt Disney Pictures
Жанр: Фэнтези, комедия, семейный

Режиссёр: Майкл Лембек
В ролях: Тим Аллен, Элизабет Митчелл, Дэвид Крамхолц, Эрик Ллойд, Джадж Райнхолд, Венди Крюсон, Спенсер Бреслин, Лилиана Муми, Даниэль Вудман, Арт ЛаФлёр

Перевод: Профессиональный (многоголосый, закадровый)
Субтитры: Нет

Описание: Вот уже восемь лет Скотт Кэлвин работает Санта Клаусом не покладая рук и как следует вошел во вкус. Однако это не значит, что у него не осталось никаких забот. На подступах к очередному Новому году герой вдруг открывает, что его сын Чарли растет хулиганом, а сам он согласно контракту обязан безотлагательно найти себе миссис Клаус, потому что холостой Санта — нарушение всех мыслимых правил.
Вдобавок, пытаясь одновременно решить возникшие проблемы, он неосторожно поручает дела двойнику, который в его отсутствие превращает жизнь на полюсе в полный хаос!



Качество: BDRip-AVC
Продолжительность: 01:44:02 час.

Формат: MKV
Видео кодек: H.264
Аудио кодек: AС3
Видео: 720x390 (1.85:1), 23.976 fps, H.264 ~832 kbps avg, 0.124 bit/pixel
Аудио: 48 kHz, AС3, 2 ch, ~320 kbps avg

"Mediainfo" ▼
General
Unique ID : 232405571029955016237931788655787730458 (0xAED7AF5241EE5F8C86E339B4FE8B661A)
Complete name : Santa.2.BDRip-AVC.mkv
Format : Matroska
Format version : Version 2
File size : 861 MiB
Duration : 1h 44mn
Overall bit rate : 1 154 Kbps
Encoded date : UTC 2012-12-30 18:15:48
Writing application : mkvmerge v5.8.0 (No Sleep / Pillow) built on Sep 2 2012 15:37:04
Writing library : libebml v1.2.3 + libmatroska v1.3.0

Video
ID : 1
Format : AVC
Format/Info : Advanced Video Codec
Format profile : High [email protected]
Format settings, CABAC : Yes
Format settings, ReFrames : 15 frames
Codec ID : V_MPEG4/ISO/AVC
Duration : 1h 44mn
Bit rate : 832 Kbps
Width : 720 pixels
Height : 390 pixels
Display aspect ratio : 1.85:1
Frame rate mode : Constant
Frame rate : 23.976 fps
Color space : YUV
Chroma subsampling : 4:2:0
Bit depth : 10 bits
Scan type : Progressive
Bits/(Pixel*Frame) : 0.124
Stream size : 605 MiB (70%)
Writing library : x264 core 129 r2230+696+35 805d074 tMod [[email protected] X86_64]
Encoding settings : cabac=1 / ref=15 / deblock=1:-2:-2 / analyse=0x3:0x133 / me=tesa / subme=11 / psy=1 / fade_compensate=0.00 / psy_rd=1.00:0.15 / mixed_ref=1 / me_range=32 / chroma_me=1 / trellis=2 / 8x8dct=1 / cqm=0 / deadzone=21,11 / fast_pskip=1 / chroma_qp_offset=-3 / threads=2 / lookahead_threads=1 / sliced_threads=0 / nr=0 / decimate=1 / interlaced=0 / bluray_compat=0 / constrained_intra=0 / fgo=0 / bframes=9 / b_pyramid=2 / b_adapt=2 / b_bias=0 / direct=2 / weightb=1 / open_gop=0 / weightp=1 / keyint=240 / keyint_min=25 / scenecut=40 / intra_refresh=0 / rc_lookahead=60 / rc=2pass / mbtree=1 / bitrate=832 / ratetol=1.0 / qcomp=0.60 / qpmin=0 / qpmax=81 / qpstep=4 / cplxblur=20.0 / qblur=0.5 / ip_ratio=1.40 / aq=1:1.00
Language : English
Default : Yes
Forced : No
Color primaries : BT.709
Transfer characteristics : BT.709
Matrix coefficients : BT.709

Audio
ID : 2
Format : AC-3
Format/Info : Audio Coding 3
Format profile : Dolby Digital
Mode extension : CM (complete main)
Format settings, Endianness : Big
Codec ID : A_AC3
Duration : 1h 44mn
Bit rate mode : Constant
Bit rate : 320 Kbps
Channel(s) : 2 channels
Channel positions : Front: L R
Sampling rate : 48.0 KHz
Bit depth : 16 bits
Compression mode : Lossy
Stream size : 239 MiB (28%)
Language : Russian
Default : Yes
Forced : No



a7927b8f25af903fc59f8464bcdb97ef7e0afca5Санта Клаус 2 / The Santa Clause 2 (Майкл Лембек, Фэнтези, комедия, семейный, 2002) [BDRip-AVC, Профессиональный (многоголосый, закадровый)] Санта Клаус 2 / The Santa Clause 2 (Майкл Лембек, Фэнтези, комедия, семейный, 2002) [BDRip-AVC, Профессиональный (многоголосый, закадровый)] " />

Аплоадер: Админ, дата: 8-01-2014, 02:26, торрент скачан: 359 раз

Понравилась раздача? Посмотрите эти:
  • Санта Клаус / The Santa Clause (Джон Пасквин, Фэнтези, драма, комедия, семе ...
  • Санта Клаус 2 / The Santa Clause 2 (Майкл Лембек, Фэнтези, комедия, семейн ...
  • Санта Клаус 3 / The Santa Clause 3: The Escape Clause (Майкл Лембек, Фэнтез ...
  • Санта Клаус / The Santa Clause (Джон Пасквин, фэнтези, драма, комедия, семе ...
  • Санта Клаус 3 / The Santa Clause 3: Escape Clause (Майкл Лембек, Фэнтези, к ...
  • FLO / NRG [2012, Pop, Dance, MasterRip]
  • Посылка / The Package (Джесси Джонсон, боевик, 2013) [BDRip 720p, Профессио ...
  • Иллюзия обмана / Now You See Me [Theatrical Cut] (Луи Летерье / Louis Leter ...
  • 42 / 42 (Брайан Хелгеленд, Драма, биография, спорт, 2013) [BDRip 720p, Проф ...
  • Тысяча слов / A Thousand Words (Брайан Роббинс, Комедия, драма, 2012) [BDRi ...
  • Тысяча слов / A Thousand Words (Брайан Роббинс, Комедия, драма, 2009) [BDRi ...
  • UFC - Best Of 2012 Year In Review[MMA,2013, BDRip 540p]
  • Смерть на похоронах / Death at a Funeral (Нил ЛаБут, комедия, 2010) [BDRip ...
  • Безопасность не гарантируется / Safety Not Guaranteed (Колин Треворроу, фан ...
  • Зубная фея 2 / Tooth Fairy 2 (Алекс Замм, комедия, семейный, 2012) [BDRip 7 ...
  • [Трилогия] Санта Клаус / The Santa Clause (Майкл Лембек, фэнтези, комедия, ...
  • Странная жизнь Тимоти Грина / The Odd Life of Timothy Green (Питер Хеджес, ...
  • Странная жизнь Тимоти Грина / The Odd Life of Timothy Green (Питер Хеджес, ...
  • Футбольный клуб / Чемпионат Европы 2012 / НТВ+ [Футбол, 08.06.2012, HDTVRip ...
  • Chelsea - Season Review 2011-12 / Челси - Обзор Сезона 2011-12 [ Футбол, 20 ...
  • Mylene Farmer / Du Temps [2011, Pop, HDTVRip]
  • Mylene Farmer / Bleu Noir [2011, Pop, HDTVRip]
  • Санта Клаус 2 / The Santa Clause 2 (Майкл Лембек, фэнтези, комедия, семейн ...
  • Санта Клаус / The Santa Clause (1-3) (Джон Пасквин, Майкл Лембек, 1994, 200 ...
  • Церемония открытия летних Олимпийских игр 2012 в Лондоне. НТВ + [27.08.2012 ...
  • Информация
    Посетители, находящиеся в группе Гости, не могут оставлять комментарии к данной публикации.