вход на сайт

Имя пользователя :
Пароль :

Восстановление пароля Регистрация
Подземелье драконов 3 / Dungeons & Dragons: The Book of Vile Darkness (Джерри Лайвли,фэнтези,2012) [DVDRip,Профессиональный (многоголосый закадровый)]
Рейтинг:
(голосов: 1)



[img]{THEME}/images/logopost.png[/img]



Подземелье драконов 3 / Dungeons & Dragons: The Book of Vile Darkness


Год выпуска: 2012
Страна: Великобритания
Производство: Zinc Entertainment Inc.
Жанр: фэнтези

Режиссёр: Джерри Лайвли
В ролях: Миган Гуд,Джеймс Роулингс,Энтони Хауэлл,Элеанор Гекс,Остин Нолти,Бо Брассо,Доминик Мафэм,Jack Derges,Яна Титова,Алексис Дэниэл

Перевод: Профессиональный (многоголосый закадровый)
Субтитры: отсутствуют

Описание: 2000 лет назад могучий колдун Нагрул, вселявший в людские сердца страх и отчаяние, перед лицом смерти продал свою душу Демону, чтобы его полный ненависти дух выжил, когда его тело умрет. В мучительном ритуале, верные слуги сделали из кожи мага страницы, из раздробленных костей сделали обложку, а его мертвой кровью написали Книгу Заклинаний. Любой прочитавший ее, либо терял разум, либо, ослепленный темными знаниями, вставал на сторону Зла. Стремительно растущая армия тьмы покоряла все новые и новые территории, следуя наставлениям своего хозяина, сея хаос и разрушения.
На борьбу со Злом встал Орден Рыцарей Нового Солнца. Чистота их сердец была так велика, что Пела — бог света, даровал им могучие амулеты, с помощью которых воинам удалось разбить огромную армию врага. Но верные служители Нагрула успели спрятать книгу. И никто из ордена не мог найти ее. Постепенно поиски прекратились. Воцарившейся мир быстро стер в памяти людей темные времена. Но слуги Нагрула только ждали подходящего момента…Качество: DVDRip|Сэмпл
Продолжительность: 01:26:22

Формат: AVI
Видео кодек: XviD
Аудио кодек: MPEG Layer 3
Видео: 688x384 (16:9), 25.000 fps, XviD MPEG-4 ~1067 kbps avg, 0.162 bit/pixel
Аудио: 48 kHz, MPEG Layer 3, 2 ch, ~128.00 kbps avg
"Media Info" ▼Text
General
Format : AVI
Format/Info : Audio Video Interleave
File size : 744 MiB
Duration : 1h 26mn
Overall bit rate : 1 205 Kbps
Writing application : VirtualDubMod 1.5.10.3 | www.virtualdub-fr.org || (build 2550/release)
Writing library : VirtualDubMod build 2550/release
Video #0
ID : 0
Format : MPEG-4 Visual
Format profile : Advanced [email protected]
Format settings, BVOP : Yes
Format settings, QPel : No
Format settings, GMC : No warppoints
Format settings, Matrix : Custom
Codec ID : XVID
Codec ID/Hint : XviD
Duration : 1h 26mn
Bit rate : 1 067 Kbps
Width : 688 pixels
Height : 384 pixels
Display aspect ratio : 16:9
Frame rate : 25.000 fps
Color space : YUV
Chroma subsampling : 4:2:0
Bit depth : 8 bits
Scan type : Progressive
Compression mode : Lossy
Bits/(Pixel*Frame) : 0.162
Stream size : 659 MiB (89%)
Writing library : XviD 65
Audio #1
ID : 1
Format : MPEG Audio
Format version : Version 1
Format profile : Layer 3
Codec ID : 55
Codec ID/Hint : MP3
Duration : 1h 26mn
Bit rate mode : Constant
Bit rate : 128 Kbps
Channel(s) : 2 channels
Sampling rate : 48.0 KHz
Compression mode : Lossy
Stream size : 79.1 MiB (11%)
Alignment : Aligned on interleaves
Interleave, duration : 40 ms (1.00 video frame)
Interleave, preload duration : 504 ms


724e7b30b612082d0e4bd0527323191a0954715eПодземелье драконов 3 / Dungeons & Dragons: The Book of Vile Darkness (Джерри Лайвли,фэнтези,2012) [DVDRip,Профессиональный (многоголосый закадровый)] Подземелье драконов 3 / Dungeons & Dragons: The Book of Vile Darkness (Джерри Лайвли,фэнтези,2012) [DVDRip,Профессиональный (многоголосый закадровый)] " />

Аплоадер: Админ, дата: 24-10-2012, 14:53, торрент скачан: 359 раз

Понравилась раздача? Посмотрите эти:
  • Погнали! / Getaway (Кортни Соломон, Боевик,Криминал, 2013) [HDRip, Професси ...
  • Орудие смерти / A-i-deul... (Ли Гю Ман, Триллер, криминал, 2011) [DVDRip, П ...
  • Мэрайа Мунди и шкатулка Мидаса / The Adventurer: The Curse of the Midas Box ...
  • Мужество / Wymyk (Грег Зглински, драма, 2011) [DVDRip, Любительский (одного ...
  • Решала (Роман Асхаев, Драма,Криминал, 2012) [WEB-DLRip, Не требуется]
  • Чемпионат Италии 2012-13 / 36-й тур / Рома — Кьево / НТВ+ [07.05.2013, SD, ...
  • Воин / The One Warrior (Том Стаут, фантастика, 2011) [DVDRip,Оригинал,Профе ...
  • Плохая актриса / Bad Actress (Роберт Ли Кинг, комедия, 2011) [DVDRip, Профе ...
  • Подземелье драконов 3 / Dungeons & Dragons: The Book of Vile Darkness (Джер ...
  • Захват / Carjacked (Джон Бонито, триллер, 2011)[BDRip, Профессиональный (мн ...
  • Чемпионат Европы 2012 / Группа C / 1-й тур / Ирландия — Хорватия / ТРК Футб ...
  • Чемпионат Европы 2012 / Группа D / 1-й тур / Украина - Швеция / Спорт 1 [11 ...
  • Олимпиада 2012 / Мужчины / Группа D / 1-й тур / Испания — Япония / НТВ+ [Фу ...
  • Tank Feat. T.I. & Kris Stephens / Compliments [2012, RnB,Hip-Hop, HDRip]
  • Подземелье драконов 3 / Dungeons & Dragons: The Book of Vile Darkness (Джер ...
  • Неделя в NBA с В.Гомельским / НТВ+ [28.06.2011, SD, XviD, RU, SAT]
  • Чемпионат Англии 2011-2012 / Championship / 45-й Тур / Обзор Матчей / НТВ+ ...
  • Чемпионат Европы 2012 / Группа B / 1-й тур / Германия - Португалия / Спорт ...
  • NBA Finals 2012 / Sportscenter / В преддверии 3-ей игры / Viasat Sport [Бас ...
  • Замёрзший мир / 2012: Ice Age (Трэвис Форт, фантастика, боевик, 2011) [HDRi ...
  • Олимпиада 2012 / Женщины, Мужчины / Плавание / Квалификация / НТВ+ [30.07.2 ...
  • Подземелье драконов 3 / Dungeons & Dragons: The Book of Vile Darkness (Джер ...
  • Подземелье драконов 3 / Dungeons & Dragons: The Book of Vile Darkness (Джер ...
  • Искажение / Skew (Сейв Челенз, ужасы, триллер, 2011) [HDRip, Профессиональн ...
  • Робинзон Крузо / Robinson Crusoe (Род Харди, Джордж Миллер, драма, приключе ...
  • Информация
    Посетители, находящиеся в группе Гости, не могут оставлять комментарии к данной публикации.