вход на сайт

Имя пользователя :
Пароль :

Восстановление пароля Регистрация
Сделано в Раю / Made in Heaven (Алан Рудольф, фэнтези, мелодрама, комедия, 1987) [DVDRip, Профессиональный (двухголосый, закадровый) + оригинал]
Рейтинг:
(голосов: 1)



[img]{THEME}/images/logopost.png[/img]



Сделано в Раю / Made in Heaven

Год выпуска: 1987
Страна: США
Производство: Lorimar Motion Pictures
Жанр: фэнтези, мелодрама, комедия

Режиссёр: Алан Рудольф
В ролях: Тимоти Хаттон, Келли МакГиллис, Морин Стэплтон, Энн Уэджуорт, Джеймс Гаммон, Мэр Уиннингэм, Дон Мюррей, Тимоти Дэйли, Дэвид Раше, Аманда Пламмер, Уиллард И. Пью, Вито Ругинис, Нил Янг, Том Петти, Лорен Хилл, Джордж Паппас, Эллен Баркин, Дебра Уингер

Перевод: Профессиональный (двухголосый, закадровый) + оригинал
Субтитры: Отсутствуют

Описание:
Дух умершего мужчины попадает на небеса и влюбляется в дух еще нерожденной женщины. Идиллическая любовь роковым образом прерывается, когда дух возлюбленной должен покинуть рай и вселиться в тело только что родившейся на земле девочки…


СЭМПЛ

Дополнительно:
Рейтинг MPAA: ▼
Рейтинг PG - Рекомендуется присутствие родителей



MediaInfo ▼Text
Общее
Полное имя :K:РАЗДАЧАСделано в РаюSdelano.v.Raju.1987.XviD.DVDRip.avi
Формат :AVI
Размер :1.45 GiB
Продолжительность :01:42:16.968
Общий поток :2 029 Kbps
Программа кодирования :VirtualDubModRus 1.5.10.2 (build 2540/release)

Видео
Идентификатор :0
Формат :MPEG-4 Visual
Профиль формата :Advanced [email protected]
Параметр BVOP формата :1
Параметр Qpel формата :No
Параметр GMC формата :0
Параметр Matrix формата :Default (MPEG)
Идентификатор кодека :XVID
Продолжительность :1h 42mn 16s 964ms
Битрейт :1 695 Kbps
Ширина :720 pixels
Высота :400 pixels
Соотношение сторон :1.800
Частота кадров :23.976 fps
Глубина цвета :8 bits
Подвыборка цветности :4:2:0
Цветовое пространство :YUV
Тип развертки :Progressive
Бит/(Пиксели*Кадры) :0.246
Размер потока :1.21 GiB (84%)
Библиотека кодирования :XviD0047

Аудио #1
Идентификатор :1
Формат :MPEG Audio
Идентификатор кодека :55
Продолжительность :01:42:16.968
Вид битрейта :Constant
Битрейт :128 Kbps
Канал(ы) :2 channels
Частота :48.0 KHz
Метод сжатия :Lossy
Размер потока :93.6 MiB (6%)

Аудио #2
Иденти
29330ecba20784604c5f92a9f1fa4ecf639dfadeСделано в Раю / Made in Heaven (Алан Рудольф, фэнтези, мелодрама, комедия, 1987) [DVDRip, Профессиональный (двухголосый, закадровый) + оригинал] Сделано в Раю / Made in Heaven (Алан Рудольф, фэнтези, мелодрама, комедия, 1987) [DVDRip, Профессиональный (двухголосый, закадровый) + оригинал] " />

Аплоадер: Админ, дата: 6-10-2012, 18:24, торрент скачан: 359 раз

Понравилась раздача? Посмотрите эти:
  • Привидения по-итальянски / Questi fantasmi (Ренато Кастеллани, фэнтези, ком ...
  • Вечерние посетители / Les visiteurs du soir (Марсель Карне, фэнтези, драма, ...
  • Индеец-беглец / The Indian Runner (Шон Пенн, драма, 1991) [DVDRip, Професси ...
  • Поездка в Америку / Coming to America (Джон Лэндис, драма, мелодрама, комед ...
  • Снова в школу / Back to School (Алан Меттер, мелодрама, комедия, спорт, 198 ...
  • Королевская шлюха / La putain du roi (Аксель Корти, драма, мелодрама, прикл ...
  • Ловушка для родителей / The Parent Trap (Дэвид Свифт, мелодрама, комедия, с ...
  • Однажды на матрасе / Once Upon a Mattress (Кэтлин Маршалл, мюзикл, мелодрам ...
  • Спасите тигра / Save the Tiger (Джон Г. Эвилдсен, драма, 1973) [DVDRip, Про ...
  • Подмена / Switch (Блейк Эдвардс, фэнтези, комедия, криминал, 1991) [DVDRip, ...
  • Сердце и души / Heart and Souls (Рон Андервуд, фэнтези, драма, мелодрама, к ...
  • Бог любви / God of Love (Люк Мэзени, Короткометражка, фэнтези, комедия, мел ...
  • Огни рампы / Limelight (Чарльз Чаплин, драма, мелодрама, комедия, музыка, 1 ...
  • Летняя школа / Summer School (Карл Райнер, мелодрама, комедия, 1987) [DVDRi ...
  • Мой слуга Годфри / My Man Godfrey (Грегори Ла Кава, мелодрама, комедия, 193 ...
  • Бог знает, мистер Аллисон / Heaven Knows, Mr. Allison (Джон Хьюстон, боевик ...
  • Великий Уолдо Пеппер / The Great Waldo Pepper (Джордж Рой Хилл, драма, прик ...
  • Колокол, книга и свеча / Bell Book and Candle (Ричард Квин, фэнтези, комеди ...
  • Под покровом небес / The Sheltering Sky (Бернардо Бертолуччи, драма, мелодр ...
  • Воровка / Burglar (Хью Уилсон, Комедия, криминал, 1987) [DVDRip, Профессион ...
  • Суперполицейский / Poliziotto superpiu (Серджио Корбуччи, фантастика, фэнте ...
  • В то же время, в следующем году / Same Time, Next Year (Роберт Маллиган, др ...
  • Дьявольское око / Djдvulens цga (Ингмар Бергман, фэнтези, драма, комедия, 1 ...
  • Хеллоу, Долли! / Hello, Dolly! (Джин Келли, мюзикл, мелодрама, комедия, сем ...
  • Эпоха радио / Radio Days (Вуди Аллен, комедия, семейный, 1987) [DVDRip, Про ...
  • Информация
    Посетители, находящиеся в группе Гости, не могут оставлять комментарии к данной публикации.