вход на сайт

Имя пользователя :
Пароль :

Восстановление пароля Регистрация
Воин Севера / Jadesoturi (Анти-Юсси Аннила, Фэнтези, Драма, Приключения, 2006) [DVDRip, Профессиональный (многоголосый, закадровый)]
Рейтинг:
(голосов: 1)



[img]{THEME}/images/logopost.png[/img]



Воин Севера / Jadesoturi

Год выпуска: 2006
Страна: Финляндия , Нидерланды , Китай , Эстония
Жанр: Фэнтези, Драма, Приключения
Производство: A-Film Distribution, Finnish Film Foundation, Sandrew Metronome Distribution Finland, Troika Entertainment GmbH, Yleisradio (YLE), Zweites Deutsches Fernsehen (ZDF), arte, Blind Spot Pictures Oy, Fu Works, Film Tower, Ming Productions

Режиссёр: Анти-Юсси Аннила
В ролях: Томми Эронен, Маркку Пелтола, Чжан Цзинчу, Криста Косонен, Хао Данг, Чэнь Тайшэн, Элле Кулль

Перевод: Профессиональный (многоголосый, закадровый)
Субтитры: Отсутствуют

Описание: Много веков назад бесстрашный воин Синтай вступает в неравный бой с демоном, чтобы защитить свою любовь и избавить мир от зла… Но поединок не завершен, а лишь отложен на время. Тысячу лет спустя когда исследователи пытаются расшифровать послание, найденное в гробнице древнего воина, Синтай с помощью магической мельницы Сампо обретает новое рождение. Ему предстоит новый бой с демоном…
"Информация (MediaInfo)" ▼General
Complete name : D:ВидеоФильмыВоин севера.avi
Format : AVI
Format/Info : Audio Video Interleave
File size : 1.37 GiB
Duration : 1h 40mn
Overall bit rate : 1 950 Kbps
Writing application : VirtualDubMod 1.5.10.3 | www.virtualdub-fr.org || (build 2550/release)
Writing library : VirtualDubMod build 2550/release
Video #0
ID : 0
Format : MPEG-4 Visual
Format profile : Advanced [email protected]
Format settings, BVOP : 2
Format settings, QPel : No
Format settings, GMC : No warppoints
Format settings, Matrix : Default (H.263)
Codec ID : XVID
Codec ID/Hint : XviD
Duration : 1h 40mn
Bit rate : 1 556 Kbps
Width : 720 pixels
Height : 304 pixels
Display aspect ratio : 2.35:1
Frame rate : 25.000 fps
Color space : YUV
Chroma subsampling : 4:2:0
Bit depth : 8 bits
Scan type : Progressive
Compression mode : Lossy
Bits/(Pixel*Frame) : 0.284
Stream size : 1.09 GiB (80%)
Writing library : XviD 65
Audio #1
ID : 1
Format : AC-3
Format/Info : Audio Coding 3
Mode extension : CM (complete main)
Codec ID : 2000
Duration : 1h 40mn
Bit rate mode : Constant
Bit rate : 384 Kbps
Channel(s) : 6 channels
Channel positions : Front: L C R, Side: L R, LFE
Sampling rate : 48.0 KHz
Bit depth : 16 bits
Compression mode : Lossy
Stream size : 276 MiB (20%)
Alignment : Split accross interleaves
&
1c58f53ff94883edb607d96f4803d7ce93e3b59aВоин Севера / Jadesoturi (Анти-Юсси Аннила, Фэнтези, Драма, Приключения, 2006) [DVDRip, Профессиональный (многоголосый, закадровый)] Воин Севера / Jadesoturi (Анти-Юсси Аннила, Фэнтези, Драма, Приключения, 2006) [DVDRip, Профессиональный (многоголосый, закадровый)] " />

Аплоадер: Админ, дата: 30-08-2012, 11:19, торрент скачан: 359 раз

Понравилась раздача? Посмотрите эти:
  • Вирус / Flu (Ким Сон Су, Драма, 2013) [HDTVRip, Любительский (двухголосый з ...
  • Орудие смерти / A-i-deul... (Ли Гю Ман, Триллер, криминал, 2011) [DVDRip, П ...
  • Мэрайа Мунди и шкатулка Мидаса / The Adventurer: The Curse of the Midas Box ...
  • Мэрайа Мунди и шкатулка Мидаса / The Adventurer: The Curse of the Midas Box ...
  • Воин Шайтана / Sejtanov ratnik (Стивен Филипович, ужасы, фэнтези, комедия, ...
  • Мужество / Wymyk (Грег Зглински, драма, 2011) [DVDRip, Любительский (одного ...
  • 42 / 42 (Брайан Хелгеленд, драма, биография, спорт, 2013) [BDRip, Профессио ...
  • Слепой поворот / Blind Turn (Роберт Орр, Триллер, драма, детектив, 2012) [W ...
  • Спайдервик: Хроники / The Spiderwick Chronicles (Марк С. Уотерс, Фэнтези, п ...
  • МЫ. Верим в любовь / W.E. (Мадонна, Драма, мелодрама, история, 2011) [BDRip ...
  • Любовь на кончиках пальцев / Populaire (Режис Ройнсар, Мелодрама, комедия, ...
  • В хлам / Smashed (Джеймс Понсольдт, Драма, комедия, 2012) [HDRip, Профессио ...
  • Простые истины / Straight As (Джеймс Кокс, драма, комедия, 2013) [HDRip, П ...
  • Тюремщик / Screwed (Рег Тревисс / Reg Traviss, Драма, 2011) [DVDRip , Люби ...
  • Воин / The One Warrior (Том Стаут, фантастика, 2011) [DVDRip,Оригинал,Профе ...
  • Плохая актриса / Bad Actress (Роберт Ли Кинг, комедия, 2011) [DVDRip, Профе ...
  • Супер циклон / Super Cyclone (Лиз Адамс / Liz Adams, боевик, 2012) [HDRip, ...
  • Захват / Carjacked (Джон Бонито, триллер, 2011)[BDRip, Профессиональный (мн ...
  • Битва в пустыне / The Objective (Дэниэл Мирик, ужасы, фантастика, триллер, ...
  • Последний отпуск / Last Holiday (Уэйн Ван, Драма, комедия, приключения, 200 ...
  • Супершторм в Сиэтле / Seattle Superstorm (Джейсон Бурк, фантастика, боевик ...
  • Пропавшие / Gone (Ринган Ледвидж, ужасы, триллер, драма, 2007) [DVDRip, Пр ...
  • Девушки в опасности / Damsels in Distress (Уит Стиллман, драма, мелодрама, ...
  • Искажение / Skew (Сейв Челенз, ужасы, триллер, 2011) [HDRip, Профессиональн ...
  • Табу / Tabu (Мигель Гомеш, Драма, мелодрама, 2012) [DVDRip, Профессиональны ...
  • Информация
    Посетители, находящиеся в группе Гости, не могут оставлять комментарии к данной публикации.